<?xml version="1.0" standalone="no"?>
<!DOCTYPE svg PUBLIC "-//W3C//DTD SVG 1.1//EN" "http://www.w3.org/Graphics/SVG/1.1/DTD/svg11.dtd" >
<svg xmlns="http://www.w3.org/2000/svg">
<metadata>
<json>
<![CDATA[
{
	"fontFamily": "Linearicons",
	"fontURL": "http://linearicons.com",
	"designerURL": "http://perxis.com",
	"license": "http://linearicons.com/license",
	"licenseURL": "http://linearicons.com/license",
	"description": "Designed by Perxis (http://perxis.com).\nFont generated by IcoMoon.",
	"copyright": "Copyright © 2015 Perxis.com. All Rights Reserved.",
	"version": "Version 1.0",
	"majorVersion": 0,
	"fontId": "Linearicons",
	"psName": "Linearicons",
	"subFamily": "Regular",
	"fullName": "Linearicons"
}
]]>
</json>
</metadata>
<defs>
<font id="Linearicons" horiz-adv-x="1024">
<font-face units-per-em="1024" ascent="972.950146627566" descent="-51.049853372434015" />
<missing-glyph horiz-adv-x="1024" />
<glyph unicode="&#x20;" horiz-adv-x="409.39980449657867" d="" />
<glyph unicode="&#xe601;" glyph-name="home" data-tags="home, building, house" d="M25.378 356.926c-6.134 0-12.287 2.187-17.191 6.627-10.5 9.499-11.311 25.712-1.811 36.211l452.711 500.365c14.074 15.554 33.043 24.122 53.412 24.122 0 0 0 0 0 0 20.369 0 39.337-8.566 53.411-24.122l452.713-500.367c9.5-10.5 8.689-26.713-1.811-36.211-10.5-9.502-26.713-8.689-36.211 1.811l-452.713 500.368c-4.228 4.674-9.694 7.246-15.389 7.246s-11.162-2.574-15.391-7.248l-452.711-500.365c-5.060-5.595-12.028-8.438-19.020-8.438zM794.512-53.275h-564.026c-42.409 0-76.913 34.504-76.913 76.913v410.201c0 14.16 11.479 25.638 25.638 25.638s25.638-11.478 25.638-25.638v-410.201c0-14.136 11.502-25.638 25.638-25.638h564.026c14.136 0 25.638 11.502 25.638 25.638v410.201c0 14.16 11.478 25.638 25.638 25.638s25.638-11.478 25.638-25.638v-410.201c0-42.409-34.504-76.913-76.913-76.913z" />
<glyph unicode="&#xe604;" glyph-name="home1" data-tags="home, building, house" d="M25.378 356.926c-6.134 0-12.287 2.187-17.191 6.627-10.5 9.499-11.311 25.712-1.811 36.211l452.711 500.365c14.074 15.554 33.043 24.122 53.412 24.122 0 0 0 0 0 0 20.369 0 39.337-8.566 53.411-24.122l152.024-168.027-0.334 60.521c-0.037 6.824 2.647 13.382 7.459 18.221 4.812 4.837 11.355 7.558 18.179 7.558h102.55c14.16 0 25.638-11.479 25.638-25.638v-230.307l147.198-162.694c9.5-10.5 8.689-26.713-1.811-36.211-10.5-9.502-26.713-8.689-36.211 1.811l-153.825 170.015c-4.265 4.714-6.627 10.845-6.627 17.201v214.549h-51.133l0.564-101.84c0.058-10.628-6.446-20.192-16.355-24.040-9.909-3.846-21.164-1.184-28.293 6.698l-197.043 217.786c-4.228 4.674-9.694 7.246-15.389 7.246s-11.162-2.574-15.391-7.248l-452.711-500.365c-5.060-5.595-12.028-8.438-19.020-8.438zM794.512-53.275h-564.026c-42.409 0-76.913 34.504-76.913 76.913v410.201c0 14.16 11.479 25.638 25.638 25.638s25.638-11.478 25.638-25.638v-410.201c0-14.136 11.502-25.638 25.638-25.638h564.026c14.136 0 25.638 11.502 25.638 25.638v410.201c0 14.16 11.478 25.638 25.638 25.638s25.638-11.478 25.638-25.638v-410.201c0-42.409-34.504-76.913-76.913-76.913z" />
<glyph unicode="&#xe627;" glyph-name="color-sampler" data-tags="color-sampler, design, colors, palette, art, style" d="M730.406 509.739c-42.411 0-76.913 34.504-76.913 76.913s34.502 76.913 76.913 76.913 76.913-34.504 76.913-76.913-34.502-76.913-76.913-76.913zM730.406 612.289c-14.136 0-25.638-11.502-25.638-25.638s11.502-25.638 25.638-25.638 25.638 11.502 25.638 25.638-11.502 25.638-25.638 25.638zM397.118 18.289c-20.584 0-39.898 7.978-54.384 22.463l-260.777 260.777c-14.487 14.485-22.465 33.799-22.465 54.384s7.978 39.898 22.467 54.386l491.514 491.512c14.485 14.487 33.799 22.465 54.384 22.465s39.898-7.978 54.384-22.465l260.776-260.774c29.988-29.988 29.988-78.782 0.002-108.77l-491.514-491.514c-14.487-14.487-33.801-22.463-54.386-22.463zM627.856 873.001c-6.888 0-13.326-2.644-18.128-7.446l-491.514-491.514c-4.802-4.802-7.446-11.24-7.446-18.128s2.644-13.326 7.446-18.126l260.776-260.779c4.802-4.801 11.24-7.445 18.128-7.445s13.327 2.644 18.129 7.446l491.514 491.512c9.994 9.997 9.994 26.263 0 36.258l-260.777 260.774c-4.802 4.802-11.238 7.446-18.128 7.446zM613.63-53.3c-15.056 0-29.77 4.558-42.553 13.345l-60.298 41.454c-11.668 8.022-14.623 23.984-6.601 35.65 8.022 11.668 23.982 14.626 35.65 6.601l60.298-41.454c5.464-3.756 11.989-5.109 18.352-3.828 6.372 1.29 11.85 5.074 15.423 10.66l280.010 437.515c7.633 11.927 23.492 15.402 35.415 7.775 11.925-7.633 15.405-23.487 7.775-35.415l-280.010-437.515c-11.13-17.391-28.335-29.209-48.442-33.277-5.005-1.009-10.033-1.511-15.019-1.511zM830.154-17.459c-6.121 0-12.22 0.974-18.125 2.943l-38.457 12.819c-13.433 4.476-20.692 18.994-16.214 32.429 4.476 13.431 18.994 20.694 32.429 16.214l38.457-12.819c0.7-0.234 2.83-0.94 6.475 1.012 4.363 2.334 9.972 8.305 12.631 18.061l63.421 232.545c3.726 13.66 17.82 21.707 31.48 17.99 13.66-3.726 21.715-17.82 17.99-31.48l-63.421-232.545c-5.985-21.944-19.802-40.089-37.905-49.777-9.165-4.905-18.99-7.392-28.76-7.392z" />
<glyph unicode="&#xe638;" glyph-name="fire" data-tags="fire, flame, hot" d="M749.763 917.153c-4.36 9.152-8.183 16.032-11.371 20.449-7.921 10.979-23.006 13.907-34.457 6.695-11.452-7.214-15.323-22.087-8.843-33.97 3.020-5.538 5.998-11.003 8.938-16.411 22.668-48.168 61.584-162.576 63.711-284.651-23.657 51.265-59.97 95.851-93.086 136.49-50.333 61.765-93.804 115.109-85.501 173.216 1.052 7.357-1.143 14.808-6.011 20.424s-11.935 8.84-19.366 8.84c-0.003 0-0.002 0-0.005 0-52.185 0-107.619-40.873-144.931-75.16-47.557-43.701-93.061-101.236-128.13-162.003-5.084-8.811-9.879-17.6-14.391-26.341 11.896 82.791 35.12 168.916 55.041 228.657 2.999 8.994 1.936 17.137-3.159 24.207-4.818 6.685-12.557 10.647-20.798 10.647-9.481 0-18.126-5.229-22.569-13.476-154.213-282.726-208.174-399.707-208.174-601.832 0-110.178 41.362-212.217 116.469-287.322 38.721-38.721 85.036-68.941 137.662-89.826 55.27-21.933 116.406-33.053 181.708-33.053s126.438 11.12 181.708 33.053c52.626 20.883 98.942 51.105 137.66 89.826 75.108 75.105 116.47 177.144 116.47 287.322 0 200.058-54.47 319.228-198.576 584.219zM335.121 685.445c32.065 55.559 75.224 110.189 118.416 149.878 30.416 27.95 59.586 47.395 83.766 56.242 5.2-64.801 50.285-120.128 97.607-178.2 83.904-102.964 163.149-200.246 54.998-364.635-23.116-28.607-51.341-53.291-84.569-73.958 32.331 58.956 43.258 128.035 28.772 196.378-10.883 51.344-35.57 98.448-71.393 136.221-38.291 40.379-88.967 69.331-146.547 83.725-12.103 3.023-24.618-3.096-29.664-14.501-5.044-11.404-1.152-24.785 9.224-31.704 33.234-22.156 49.477-98 32.792-153.118-11.431-37.762-34.066-56.911-67.273-56.914-5.903 0-12.226 0.607-18.793 1.808-22.585 4.129-39.415 16.032-51.457 36.392-1.597 2.698-3.090 5.526-4.499 8.46h0.237c-18.465 43.493-0.833 118.636 48.386 203.925zM512.501-25.991c-252.469 0-384.564 180.563-384.564 358.926 0 140.813 26.805 235.71 102.017 387.922-21.736-126.053-16.059-218.153 16.91-273.897 19.773-33.435 48.834-53.868 86.371-60.729 9.603-1.757 19.028-2.644 28.017-2.644 55.983 0.005 98.389 34.023 116.345 93.334 10.732 35.455 11.724 78.264 2.721 117.454-1.389 6.047-2.985 11.904-4.777 17.556 55.803-33.436 94.679-86.657 108.407-151.411 18.79-88.642-14.631-178.902-87.221-235.558-9.791-7.643-12.696-21.202-6.895-32.185s18.638-16.232 30.472-12.448c127.058 40.591 215.003 115.332 261.393 222.146 34.216 78.79 45.055 172.571 32.299 279.083 59.897-128.226 83.069-219.746 83.069-348.62 0-178.362-132.094-358.926-384.564-358.926z" />
<glyph unicode="&#xe668;" glyph-name="shield-check" data-tags="shield-check, shield, security, armor" d="M512.5-77.264c-2.738 0-5.475 0.437-8.108 1.316-94.306 31.435-212.651 135.946-301.497 266.254-80.978 118.769-177.508 315.539-177.508 578.469 0 14.159 11.479 25.638 25.638 25.638 144.273 0 371.133 98.771 447.255 149.52 8.61 5.742 19.831 5.742 28.442 0 76.121-50.749 302.983-149.52 447.255-149.52 14.16 0 25.638-11.479 25.638-25.638 0-262.931-96.53-459.7-177.508-578.469-88.847-130.308-207.191-234.819-301.497-266.254-2.633-0.878-5.37-1.316-8.108-1.316zM76.963 743.979c5.804-237.442 93.951-415.745 168.296-524.786 90.699-133.025 197.711-216.876 267.241-243.584 69.529 26.708 176.541 110.559 267.239 243.584 74.346 109.041 162.492 287.344 168.296 524.786-83.491 5.24-176.466 33.967-242.544 58.44-72.717 26.932-146.068 61.168-192.991 89.802-46.923-28.634-120.274-62.87-192.991-89.802-66.079-24.473-159.054-53.201-242.545-58.44zM461.225 307.299c-6.561 0-13.121 2.502-18.129 7.51l-102.55 102.55c-10.012 10.012-10.012 26.245 0 36.256s26.245 10.012 36.258 0l84.421-84.421 238.248 238.247c10.012 10.012 26.245 10.012 36.256 0 10.013-10.013 10.013-26.245 0-36.258l-256.375-256.375c-5.007-5.005-11.567-7.509-18.129-7.509z" />
<glyph unicode="&#xe681;" glyph-name="trash" data-tags="trash, bin, remove, waste" d="M820.153 845.688h-179.463v25.638c0 42.409-34.504 76.913-76.913 76.913h-102.55c-42.409 0-76.913-34.504-76.913-76.913v-25.638h-179.463c-42.409 0-76.913-34.504-76.913-76.913v-51.275c0-33.422 21.434-61.919 51.275-72.503v-645.348c0-42.411 34.504-76.913 76.913-76.913h512.751c42.411 0 76.913 34.502 76.913 76.913v645.348c29.841 10.583 51.275 39.081 51.275 72.503v51.275c0 42.409-34.502 76.913-76.913 76.913zM435.589 871.326c0 14.136 11.502 25.638 25.638 25.638h102.55c14.136 0 25.638-11.502 25.638-25.638v-25.638h-153.825v25.638zM768.878-25.988h-512.751c-14.136 0-25.638 11.502-25.638 25.638v640.939h564.026v-640.939c0-14.136-11.502-25.638-25.638-25.638zM845.79 717.501c0-14.136-11.502-25.638-25.638-25.638h-615.301c-14.136 0-25.638 11.502-25.638 25.638v51.275c0 14.136 11.502 25.638 25.638 25.638h615.301c14.136 0 25.638-11.502 25.638-25.638v-51.275zM666.328 589.313c-14.16 0-25.638-11.479-25.638-25.638v-512.751c0-14.16 11.478-25.638 25.638-25.638s25.638 11.478 25.638 25.638v512.751c0 14.159-11.478 25.638-25.638 25.638zM512.502 589.313c-14.159 0-25.638-11.479-25.638-25.638v-512.751c0-14.16 11.479-25.638 25.638-25.638s25.638 11.478 25.638 25.638v512.751c0 14.159-11.479 25.638-25.638 25.638zM358.677 589.313c-14.159 0-25.638-11.479-25.638-25.638v-512.751c0-14.16 11.479-25.638 25.638-25.638s25.638 11.478 25.638 25.638v512.751c0 14.159-11.479 25.638-25.638 25.638z" />
<glyph unicode="&#xe68c;" glyph-name="heart" data-tags="heart, love, like, favorite" d="M512.502-0.351c-4.289 0-8.578 1.076-12.452 3.227-4.815 2.674-119.262 66.722-235.467 171.628-68.744 62.061-123.648 125.547-163.183 188.694-50.439 80.561-76.012 160.951-76.012 238.934 0 148.435 120.759 269.194 269.194 269.194 50.247 0 103.614-18.832 150.271-53.030 27.291-20.003 50.516-44.108 67.648-69.708 17.132 25.602 40.358 49.707 67.649 69.708 46.658 34.197 100.025 53.030 150.27 53.030 148.435 0 269.194-120.759 269.194-269.194 0-77.983-25.575-158.373-76.012-238.934-39.536-63.147-94.439-126.632-163.183-188.694-116.204-104.907-230.652-168.953-235.467-171.628-3.873-2.152-8.162-3.227-12.452-3.227zM294.583 820.050c-120.162 0-217.919-97.757-217.919-217.919 0-155.852 120.479-297.513 221.548-388.908 90.263-81.624 181.706-138.862 214.29-158.274 32.584 19.412 124.027 76.65 214.29 158.274 101.070 91.395 221.548 233.056 221.548 388.908 0 120.162-97.759 217.919-217.919 217.919-87.315 0-172.108-71.83-193.597-136.295-3.49-10.468-13.286-17.53-24.322-17.53s-20.832 7.061-24.322 17.53c-21.487 64.465-106.281 136.295-193.597 136.295z" />
<glyph unicode="&#xe695;" glyph-name="at-sign" data-tags="at-sign, mail, email" d="M875.071 798.057c-96.846 96.846-225.608 150.182-362.569 150.182s-265.723-53.336-362.569-150.182c-96.846-96.846-150.182-225.608-150.182-362.569s53.336-265.723 150.182-362.569c96.846-96.846 225.608-150.182 362.569-150.182 80.448 0 157.474 18.112 228.942 53.831 68.126 34.048 128.935 83.897 175.856 144.161 8.7 11.173 6.695 27.28-4.476 35.979-11.173 8.698-27.278 6.696-35.979-4.476-88.187-113.262-220.985-178.219-364.342-178.219-254.458 0-461.476 207.017-461.476 461.476s207.017 461.476 461.476 461.476 461.476-207.017 461.476-461.476c0-90.569-52.712-153.825-128.188-153.825-70.682 0-128.188 57.505-128.188 128.188v205.1c0 14.159-11.478 25.638-25.638 25.638s-25.638-11.479-25.638-25.638v-43.962c-37.612 42.649-92.626 69.6-153.825 69.6-113.093 0-205.1-92.007-205.1-205.1 0-113.091 92.007-205.1 205.1-205.1 73.34 0 137.799 38.7 174.063 96.744 29.959-57.438 90.086-96.744 159.225-96.744 49.614 0 95.024 20.166 127.857 56.781 33.759 37.647 51.605 88.933 51.605 148.319 0 136.961-53.336 265.723-150.182 362.569zM512.501 281.663c-84.82 0-153.825 69.005-153.825 153.825s69.005 153.825 153.825 153.825 153.825-69.005 153.825-153.825-69.005-153.825-153.825-153.825z" />
<glyph unicode="&#xe696;" glyph-name="envelope" data-tags="envelope, mail, letter, email" d="M922.701 743.139h-820.401c-42.409 0-76.913-34.504-76.913-76.913v-461.476c0-42.411 34.504-76.913 76.913-76.913h820.401c42.411 0 76.913 34.502 76.913 76.913v461.476c0 42.409-34.502 76.913-76.913 76.913zM922.701 691.864c1.516 0 2.994-0.158 4.44-0.411l-386.197-257.467c-14.884-9.922-41.999-9.922-56.886 0l-386.199 257.467c1.445 0.253 2.924 0.411 4.44 0.411h820.401zM922.701 179.113h-820.401c-14.136 0-25.638 11.502-25.638 25.638v439.209l378.955-252.637c15.949-10.633 36.417-15.949 56.884-15.949s40.937 5.315 56.886 15.949l378.953 252.637v-439.209c0-14.136-11.502-25.638-25.638-25.638z" />
<glyph unicode="&#xe6a5;" glyph-name="eye" data-tags="eye, vision, view" d="M1018.671 452.64c-2.432 2.702-60.604 66.924-151.571 131.899-53.665 38.333-107.657 68.927-160.469 90.933-66.935 27.889-132.25 42.030-194.131 42.030s-127.196-14.141-194.131-42.032c-52.814-22.005-106.802-52.6-160.469-90.933-90.965-64.973-149.139-129.195-151.571-131.897-8.776-9.751-8.776-24.551 0-34.301 2.432-2.703 60.606-66.925 151.571-131.9 53.665-38.333 107.656-68.928 160.469-90.933 66.935-27.889 132.25-42.030 194.131-42.030s127.196 14.141 194.131 42.030c52.812 22.005 106.801 52.6 160.469 90.933 90.967 64.975 149.139 129.197 151.571 131.899 8.775 9.751 8.775 24.553 0 34.303zM644.483 643.75c46.526-39.131 73.118-96.064 73.118-156.987 0-113.091-92.009-205.1-205.1-205.1-113.093 0-205.1 92.009-205.1 205.1 0 60.924 26.593 117.857 73.121 156.987 42.169 13.764 86.729 22.476 131.979 22.476 45.252 0 89.814-8.712 131.982-22.476zM836.393 327.517c-78.603-56.007-198.6-122.767-323.892-122.767s-245.29 66.76-323.89 122.767c-59.327 42.272-104.727 85.014-127.645 107.971 22.921 22.961 68.322 65.702 127.645 107.971 27.17 19.359 59.287 40.001 94.859 58.729-17.792-35.275-27.344-74.629-27.344-115.425 0-141.367 115.010-256.375 256.375-256.375 141.367 0 256.375 115.008 256.375 256.375 0 40.794-9.552 80.149-27.341 115.425 35.569-18.728 67.688-39.369 94.857-58.729 59.325-42.272 104.726-85.014 127.643-107.971-22.921-22.961-68.322-65.702-127.643-107.971z" />
<glyph unicode="&#xe6cb;" glyph-name="clipboard-text" data-tags="clipboard-text, clipboard" d="M871.426-77.263h-717.851c-42.409 0-76.913 34.502-76.913 76.913v717.851c0 42.409 34.504 76.913 76.913 76.913h51.275c14.159 0 25.638-11.479 25.638-25.638s-11.479-25.638-25.638-25.638h-51.275c-14.136 0-25.638-11.502-25.638-25.638v-717.851c0-14.136 11.502-25.638 25.638-25.638h717.851c14.136 0 25.638 11.502 25.638 25.638v717.851c0 14.136-11.502 25.638-25.638 25.638h-51.275c-14.16 0-25.638 11.479-25.638 25.638s11.478 25.638 25.638 25.638h51.275c42.411 0 76.913-34.504 76.913-76.913v-717.851c0-42.411-34.502-76.913-76.913-76.913zM717.633 691.863c-0.008 0-0.021-0.002-0.032 0h-410.201c-14.159 0-25.638 11.479-25.638 25.638 0 51.549 23.242 91.56 65.448 112.663 14.112 7.055 28.035 10.907 39.191 13.009 10.915 59.687 63.306 105.066 126.099 105.066s115.184-45.378 126.099-105.066c11.157-2.102 25.079-5.953 39.191-13.009 41.821-20.91 65.023-60.386 65.442-111.259 0.026-0.464 0.037-0.934 0.037-1.404 0.002-14.159-11.478-25.638-25.636-25.638zM336.125 743.138h352.75c-4.919 18.27-15.746 31.627-32.714 40.498-19.927 10.417-41.042 10.776-41.254 10.779-14.159-0.002-25.495 11.478-25.495 25.636 0 42.409-34.502 76.913-76.913 76.913-42.409 0-76.913-34.504-76.913-76.913 0-14.159-11.479-25.638-25.638-25.638-0.069-0.002-21.185-0.36-41.111-10.778-16.969-8.871-27.795-22.228-32.714-40.498zM512.5 794.413c-6.746 0-13.364 2.74-18.123 7.515-4.775 4.759-7.515 11.377-7.515 18.123s2.74 13.364 7.515 18.123c4.759 4.775 11.377 7.515 18.123 7.515s13.364-2.74 18.123-7.515c4.775-4.775 7.515-11.377 7.515-18.123s-2.74-13.348-7.515-18.123c-4.759-4.775-11.377-7.515-18.123-7.515zM768.876 538.038h-512.751c-14.159 0-25.638 11.479-25.638 25.638s11.479 25.638 25.638 25.638h512.751c14.16 0 25.638-11.479 25.638-25.638s-11.478-25.638-25.638-25.638zM666.326 384.213h-410.201c-14.159 0-25.638 11.478-25.638 25.638s11.479 25.638 25.638 25.638h410.201c14.16 0 25.638-11.478 25.638-25.638s-11.478-25.638-25.638-25.638zM768.876 281.663h-512.751c-14.159 0-25.638 11.478-25.638 25.638s11.479 25.638 25.638 25.638h512.751c14.16 0 25.638-11.478 25.638-25.638s-11.478-25.638-25.638-25.638zM768.876 179.112h-512.751c-14.159 0-25.638 11.478-25.638 25.638s11.479 25.638 25.638 25.638h512.751c14.16 0 25.638-11.478 25.638-25.638s-11.478-25.638-25.638-25.638zM512.5 76.562h-256.375c-14.159 0-25.638 11.478-25.638 25.638s11.479 25.638 25.638 25.638h256.375c14.159 0 25.638-11.478 25.638-25.638s-11.479-25.638-25.638-25.638z" />
<glyph unicode="&#xe6d1;" glyph-name="register" data-tags="register, signature, agreement" d="M743.239-51.626h-666.576c-42.409 0-76.913 34.502-76.913 76.913v820.401c0 42.409 34.504 76.913 76.913 76.913h666.576c42.411 0 76.913-34.504 76.913-76.913v-102.55c0-14.159-11.478-25.638-25.638-25.638s-25.638 11.479-25.638 25.638v102.55c0 14.136-11.502 25.638-25.638 25.638h-666.576c-14.136 0-25.638-11.502-25.638-25.638v-820.401c0-14.136 11.502-25.638 25.638-25.638h666.576c14.136 0 25.638 11.502 25.638 25.638v205.1c0 14.16 11.478 25.638 25.638 25.638s25.638-11.478 25.638-25.638v-205.1c0-42.411-34.502-76.913-76.913-76.913zM538.139 717.5h-358.926c-14.159 0-25.638 11.479-25.638 25.638s11.479 25.638 25.638 25.638h358.926c14.16 0 25.638-11.479 25.638-25.638s-11.478-25.638-25.638-25.638zM640.689 614.95h-461.476c-14.159 0-25.638 11.479-25.638 25.638s11.479 25.638 25.638 25.638h461.476c14.16 0 25.638-11.479 25.638-25.638s-11.478-25.638-25.638-25.638zM589.414 512.4h-410.201c-14.159 0-25.638 11.479-25.638 25.638s11.479 25.638 25.638 25.638h410.201c14.16 0 25.638-11.479 25.638-25.638s-11.478-25.638-25.638-25.638zM435.588 409.85h-256.375c-14.159 0-25.638 11.478-25.638 25.638s11.479 25.638 25.638 25.638h256.375c14.159 0 25.638-11.478 25.638-25.638s-11.479-25.638-25.638-25.638zM435.588 102.199c-6.88 0-13.574 2.772-18.465 7.852-6.34 6.582-8.695 16.043-6.185 24.828l51.275 179.463c1.197 4.188 3.442 8.004 6.521 11.085l384.564 384.564c10.012 10.012 26.245 10.012 36.256 0l128.188-128.188c9.948-9.948 10.021-26.049 0.166-36.088l-384.564-391.774c-3.336-3.4-7.555-5.803-12.183-6.938l-179.463-44.064c-2.024-0.496-4.075-0.739-6.111-0.739zM509.691 293.868l-37.315-130.602 129.485 31.794 361.665 368.446-92.1 92.1-361.735-361.737zM333.038 102.199h-153.825c-14.159 0-25.638 11.478-25.638 25.638s11.479 25.638 25.638 25.638h153.825c14.159 0 25.638-11.478 25.638-25.638s-11.479-25.638-25.638-25.638z" />
<glyph unicode="&#xe6f6;" glyph-name="presentation" data-tags="presentation, board, play" d="M973.975 948.24h-922.951c-14.159 0-25.638-11.479-25.638-25.638v-769.126c0-14.16 11.479-25.638 25.638-25.638h399.582l-161.336-161.336c-10.012-10.012-10.012-26.245 0-36.256 5.007-5.005 11.567-7.509 18.129-7.509s13.121 2.502 18.129 7.51l161.335 161.333v-143.205c0-14.16 11.479-25.638 25.638-25.638s25.638 11.478 25.638 25.638v143.207l161.336-161.336c5.005-5.005 11.566-7.509 18.128-7.509s13.121 2.502 18.128 7.51c10.013 10.012 10.013 26.245 0 36.256l-161.335 161.335h399.582c14.16 0 25.638 11.478 25.638 25.638v769.126c0 14.159-11.478 25.638-25.638 25.638zM76.661 896.964h871.676v-615.301h-871.676v615.301zM948.337 179.113h-871.676v51.275h871.676v-51.275zM681.028 610.318l-256.375 179.463c-7.834 5.483-18.064 6.151-26.541 1.737s-13.799-13.181-13.799-22.74v-358.926c0-9.56 5.318-18.326 13.798-22.739 3.726-1.941 7.79-2.898 11.839-2.898 5.168 0 10.314 1.561 14.704 4.636l256.375 179.463c6.852 4.796 10.934 12.636 10.934 21.002s-4.083 16.206-10.934 21.004zM435.586 459.092v260.445l186.033-130.223-186.033-130.223z" />
<glyph unicode="&#xe716;" glyph-name="bookmark" data-tags="bookmark, ribbon" d="M820.155-51.626c-7.342 0-14.503 3.16-19.47 8.954l-288.185 336.215-288.185-336.215c-6.981-8.143-18.296-11.083-28.36-7.36-10.063 3.721-16.742 13.317-16.742 24.045v922.951c0 14.159 11.479 25.638 25.638 25.638h615.301c14.16 0 25.638-11.479 25.638-25.638v-922.951c0-10.727-6.68-20.324-16.742-24.045-2.903-1.076-5.913-1.595-8.89-1.595zM512.499 358.577c7.485 0 14.594-3.271 19.465-8.952l262.547-306.306v828.010h-564.026v-828.010l262.547 306.306c4.871 5.683 11.981 8.952 19.465 8.952z" />
<glyph unicode="&#xe71e;" glyph-name="user" data-tags="user, persona, profile, avatar" d="M512.5 384.212c-155.503 0-282.013 126.511-282.013 282.013s126.511 282.013 282.013 282.013 282.013-126.511 282.013-282.013-126.511-282.013-282.013-282.013zM512.5 896.962c-127.229 0-230.738-103.508-230.738-230.738s103.508-230.738 230.738-230.738c127.228 0 230.738 103.508 230.738 230.738s-103.509 230.738-230.738 230.738zM922.701-77.264h-820.401c-42.409 0-76.913 34.502-76.913 76.913 0 3.49 0.713 86.411 62.812 169.208 36.147 48.197 85.64 86.486 147.099 113.801 75.067 33.363 168.331 50.28 277.203 50.28 108.869 0 202.134-16.918 277.203-50.28 61.46-27.315 110.951-65.603 147.099-113.801 62.099-82.796 62.812-165.718 62.812-169.208 0-42.411-34.502-76.913-76.913-76.913zM512.5 281.662c-178.782 0-310.722-48.861-381.559-141.3-53.089-69.276-54.274-140.109-54.279-140.817 0-14.034 11.502-25.535 25.638-25.535h820.401c14.136 0 25.638 11.502 25.638 25.638-0.006 0.604-1.191 71.438-54.277 140.713-70.838 92.439-202.78 141.3-381.561 141.3z" />
<glyph unicode="&#xe756;" glyph-name="tags" data-tags="tags, price" d="M806.957 565.843c-42.411 0-76.913 34.504-76.913 76.913s34.502 76.913 76.913 76.913 76.913-34.504 76.913-76.913-34.502-76.913-76.913-76.913zM806.957 668.393c-14.136 0-25.638-11.502-25.638-25.638s11.502-25.638 25.638-25.638 25.638 11.502 25.638 25.638-11.502 25.638-25.638 25.638zM909.507 822.218h-179.463c-35.286 0-80.712-18.816-105.659-43.765l-388.964-388.964c-14.487-14.487-22.467-33.801-22.467-54.386s7.978-39.898 22.465-54.384l133.429-133.429-56.16-32.426c-5.883-3.395-12.786-4.281-19.438-2.501-6.652 1.782-12.188 6.003-15.583 11.885l-184.395 319.382c-7.068 12.244-2.858 27.953 9.384 35.021l409.469 236.407c12.261 7.079 16.462 22.759 9.384 35.021-7.080 12.264-22.761 16.461-35.021 9.384l-409.469-236.404c-17.743-10.244-30.448-26.834-35.775-46.719s-2.62-40.604 7.624-58.347l184.396-319.383c10.244-17.743 26.834-30.448 46.719-35.775 6.661-1.784 13.417-2.668 20.123-2.668 13.31 0 26.428 3.48 38.226 10.292l68.059 39.294 38.534-38.535c14.487-14.487 33.799-22.465 54.386-22.465s39.898 7.978 54.384 22.465l388.965 388.965c24.948 24.95 43.763 70.373 43.763 105.659v179.463c0 42.409-34.502 76.913-76.913 76.913zM935.144 565.843c0-21.277-13.703-54.358-28.746-69.403l-388.965-388.965c-4.802-4.801-11.24-7.445-18.128-7.445s-13.327 2.644-18.128 7.445l-209.501 209.504c-4.802 4.801-7.446 11.238-7.446 18.126s2.644 13.326 7.446 18.128l388.965 388.964c15.043 15.046 48.123 28.748 69.401 28.748h179.463c14.136 0 25.638-11.502 25.638-25.638v-179.463z" />
<glyph unicode="&#xe759;" glyph-name="credit-card" data-tags="credit-card, money, payment" d="M948.339 794.414h-871.676c-42.409 0-76.913-34.504-76.913-76.913v-564.026c0-42.411 34.504-76.913 76.913-76.913h871.676c42.411 0 76.913 34.502 76.913 76.913v564.026c0 42.409-34.502 76.913-76.913 76.913zM76.663 743.139h871.676c14.136 0 25.638-11.502 25.638-25.638v-25.638h-922.951v25.638c0 14.136 11.502 25.638 25.638 25.638zM973.976 640.589v-153.825h-922.951v153.825h922.951zM948.339 127.838h-871.676c-14.136 0-25.638 11.502-25.638 25.638v282.013h922.951v-282.013c0-14.136-11.502-25.638-25.638-25.638zM871.426 230.388h51.275v-51.275h-51.275v51.275zM666.326 230.388h153.825v-51.275h-153.825v51.275zM512.5 230.388h102.55v-51.275h-102.55v51.275z" />
<glyph unicode="&#xe76a;" glyph-name="telephone" data-tags="telephone, phone, call, contact" d="M819.803-77.263c-90.824 0-187.428 25.737-287.126 76.498-91.929 46.805-182.747 113.821-262.642 193.806-79.88 79.97-146.81 170.874-193.555 262.883-50.682 99.756-76.381 196.39-76.381 287.215 0 58.86 54.846 115.719 78.425 137.433 33.9 31.215 87.232 67.667 125.978 67.667 19.273 0 41.864-12.607 71.098-39.674 21.814-20.2 46.338-47.579 70.918-79.183 14.815-19.049 88.722-116.438 88.722-163.156 0-38.326-43.313-64.948-89.167-93.134-17.72-10.891-36.045-22.155-49.298-32.778-14.135-11.332-16.669-17.313-17.086-18.656 48.674-121.305 197.43-270.047 318.669-318.65 1.087 0.341 7.077 2.703 18.619 17.1 10.623 13.253 21.886 31.577 32.778 49.299 28.186 45.856 54.807 89.168 93.134 89.168 46.717 0 144.107-73.906 163.156-88.722 31.603-24.582 58.985-49.104 79.183-70.92 27.068-29.232 39.674-51.823 39.674-71.096 0-38.758-36.432-92.25-67.627-126.284-21.725-23.697-78.606-78.816-137.473-78.816zM204.178 896.96c-13.751-0.262-50.709-17.079-90.922-54.108-38.171-35.15-61.882-73.358-61.882-99.714 0-345.028 423.714-769.126 768.429-769.126 26.319 0 64.512 23.83 99.674 62.19 37.057 40.425 53.885 77.527 54.148 91.312-1.665 9.743-28.612 47.633-102.382 104.436-63.415 48.834-114.867 74.996-128.088 75.348-0.926-0.274-6.666-2.47-18.304-17.247-10.119-12.851-20.942-30.463-31.412-47.493-28.725-46.735-55.856-90.877-95.261-90.877-6.345 0-12.615 1.221-18.635 3.63-134.573 53.829-293.74 212.997-347.57 347.57-6.465 16.162-7.496 41.475 24.308 70.287 16.907 15.315 40.309 29.699 62.94 43.61 17.031 10.468 34.641 21.292 47.491 31.412 14.776 11.636 16.975 17.377 17.247 18.304-0.352 13.222-26.514 64.674-75.348 128.089-56.803 73.767-94.692 100.715-104.435 102.38z" />
<glyph unicode="&#xe76c;" glyph-name="phone-wave" data-tags="phone-wave, phone, call, contact" d="M819.803-77.263c-90.824 0-187.428 25.737-287.126 76.498-91.929 46.805-182.747 113.821-262.642 193.806-79.88 79.97-146.81 170.874-193.555 262.883-50.682 99.756-76.381 196.39-76.381 287.215 0 58.86 54.846 115.719 78.425 137.433 33.9 31.215 87.232 67.667 125.978 67.667 19.273 0 41.864-12.607 71.098-39.674 21.814-20.2 46.338-47.579 70.918-79.183 14.815-19.049 88.722-116.438 88.722-163.156 0-38.326-43.313-64.948-89.167-93.134-17.72-10.891-36.045-22.155-49.298-32.778-14.135-11.332-16.669-17.313-17.086-18.656 48.674-121.305 197.43-270.047 318.669-318.65 1.087 0.341 7.077 2.703 18.619 17.1 10.623 13.253 21.886 31.577 32.778 49.299 28.186 45.856 54.807 89.168 93.134 89.168 46.717 0 144.107-73.906 163.156-88.722 31.603-24.582 58.985-49.104 79.183-70.92 27.068-29.232 39.674-51.823 39.674-71.096 0-38.758-36.432-92.25-67.627-126.284-21.725-23.697-78.606-78.816-137.473-78.816zM204.178 896.96c-13.751-0.262-50.709-17.079-90.922-54.108-38.171-35.15-61.882-73.358-61.882-99.714 0-345.028 423.714-769.126 768.429-769.126 26.319 0 64.512 23.83 99.674 62.19 37.057 40.425 53.885 77.527 54.148 91.308-1.665 9.743-28.612 47.636-102.382 104.436-63.415 48.837-114.869 75-128.088 75.348-0.926-0.274-6.666-2.47-18.304-17.247-10.119-12.853-20.942-30.466-31.412-47.496-28.725-46.735-55.853-90.877-95.257-90.877-6.348 0-12.615 1.221-18.638 3.632-134.57 53.831-293.737 212.997-347.57 347.571-6.465 16.162-7.496 41.475 24.308 70.287 16.907 15.315 40.309 29.699 62.94 43.61 17.031 10.468 34.641 21.292 47.491 31.412 14.776 11.636 16.975 17.377 17.247 18.304-0.352 13.222-26.514 64.674-75.348 128.089-56.803 73.77-94.692 100.718-104.435 102.384zM999.266 486.763c-14.16 0-25.638 11.479-25.638 25.638 0 212.048-172.513 384.564-384.564 384.564-14.16 0-25.638 11.479-25.638 25.638s11.478 25.638 25.638 25.638c116.416 0 225.865-45.335 308.184-127.654s127.654-191.767 127.654-308.184c0-14.159-11.478-25.638-25.638-25.638zM845.441 486.763c-14.16 0-25.638 11.479-25.638 25.638 0 127.229-103.508 230.738-230.738 230.738-14.16 0-25.638 11.479-25.638 25.638s11.478 25.638 25.638 25.638c155.503 0 282.013-126.511 282.013-282.013 0-14.159-11.478-25.638-25.638-25.638zM691.615 486.763c-14.16 0-25.638 11.479-25.638 25.638 0 42.409-34.502 76.913-76.913 76.913-14.16 0-25.638 11.479-25.638 25.638s11.478 25.638 25.638 25.638c70.682 0 128.188-57.505 128.188-128.188 0-14.159-11.478-25.638-25.638-25.638z" />
<glyph unicode="&#xe77a;" glyph-name="map-marker" data-tags="map-marker, pin, location" d="M512.501-77.262c-7.868 0-15.299 3.612-20.16 9.799-2.935 3.736-72.693 93-143.439 224.84-41.642 77.605-74.852 153.793-98.709 226.449-30.087 91.633-45.343 178.019-45.343 256.763 0 169.639 138.012 307.65 307.65 307.65s307.65-138.012 307.65-307.65c0-78.744-15.256-165.13-45.344-256.762-23.857-72.656-57.068-148.847-98.709-226.449-70.744-131.839-140.504-221.105-143.439-224.84-4.858-6.188-12.29-9.801-20.158-9.801zM512.501 896.964c-141.365 0-256.375-115.010-256.375-256.375 0-166.841 75.024-341.677 137.96-458.968 46.254-86.2 92.77-154.532 118.411-190.217 25.747 35.841 72.535 104.585 118.862 191.040 62.735 117.073 137.518 291.59 137.518 458.144 0 141.365-115.008 256.375-256.375 256.375zM512.501 486.764c-84.82 0-153.825 69.005-153.825 153.825s69.005 153.825 153.825 153.825 153.825-69.005 153.825-153.825-69.005-153.825-153.825-153.825zM512.501 743.139c-56.547 0-102.55-46.003-102.55-102.55s46.003-102.55 102.55-102.55c56.547 0 102.55 46.003 102.55 102.55s-46.003 102.55-102.55 102.55z" />
<glyph unicode="&#xe789;" glyph-name="calendar-full" data-tags="calendar-full, calendar, date, schedule" d="M948.341 845.688h-128.188v25.638c0 14.159-11.478 25.638-25.638 25.638s-25.638-11.479-25.638-25.638v-25.638h-512.751v25.638c0 14.159-11.479 25.638-25.638 25.638s-25.638-11.479-25.638-25.638v-25.638h-128.188c-42.409 0-76.913-34.504-76.913-76.913v-717.851c0-42.411 34.504-76.913 76.913-76.913h871.676c42.411 0 76.913 34.502 76.913 76.913v717.851c0 42.409-34.502 76.913-76.913 76.913zM76.665 794.413h128.188v-76.913c0-14.159 11.479-25.638 25.638-25.638s25.638 11.479 25.638 25.638v76.913h512.751v-76.913c0-14.159 11.478-25.638 25.638-25.638s25.638 11.479 25.638 25.638v76.913h128.188c14.136 0 25.638-11.502 25.638-25.638v-128.188h-922.951v128.188c0 14.136 11.502 25.638 25.638 25.638zM948.341 25.287h-871.676c-14.136 0-25.638 11.502-25.638 25.638v538.389h922.951v-538.389c0-14.136-11.502-25.638-25.638-25.638zM384.315 435.488h-51.275c-14.159 0-25.638 11.478-25.638 25.638s11.479 25.638 25.638 25.638h51.275c14.159 0 25.638-11.478 25.638-25.638s-11.479-25.638-25.638-25.638zM538.141 435.488h-51.275c-14.159 0-25.638 11.478-25.638 25.638s11.479 25.638 25.638 25.638h51.275c14.16 0 25.638-11.478 25.638-25.638s-11.478-25.638-25.638-25.638zM691.966 435.488h-51.275c-14.16 0-25.638 11.478-25.638 25.638s11.478 25.638 25.638 25.638h51.275c14.16 0 25.638-11.478 25.638-25.638s-11.478-25.638-25.638-25.638zM845.791 435.488h-51.275c-14.16 0-25.638 11.478-25.638 25.638s11.478 25.638 25.638 25.638h51.275c14.16 0 25.638-11.478 25.638-25.638s-11.478-25.638-25.638-25.638zM230.49 332.938h-51.275c-14.159 0-25.638 11.478-25.638 25.638s11.479 25.638 25.638 25.638h51.275c14.159 0 25.638-11.478 25.638-25.638s-11.479-25.638-25.638-25.638zM384.315 332.938h-51.275c-14.159 0-25.638 11.478-25.638 25.638s11.479 25.638 25.638 25.638h51.275c14.159 0 25.638-11.478 25.638-25.638s-11.479-25.638-25.638-25.638zM538.141 332.938h-51.275c-14.159 0-25.638 11.478-25.638 25.638s11.479 25.638 25.638 25.638h51.275c14.16 0 25.638-11.478 25.638-25.638s-11.478-25.638-25.638-25.638zM691.966 332.938h-51.275c-14.16 0-25.638 11.478-25.638 25.638s11.478 25.638 25.638 25.638h51.275c14.16 0 25.638-11.478 25.638-25.638s-11.478-25.638-25.638-25.638zM845.791 332.938h-51.275c-14.16 0-25.638 11.478-25.638 25.638s11.478 25.638 25.638 25.638h51.275c14.16 0 25.638-11.478 25.638-25.638s-11.478-25.638-25.638-25.638zM230.49 230.387h-51.275c-14.159 0-25.638 11.478-25.638 25.638s11.479 25.638 25.638 25.638h51.275c14.159 0 25.638-11.478 25.638-25.638s-11.479-25.638-25.638-25.638zM384.315 230.387h-51.275c-14.159 0-25.638 11.478-25.638 25.638s11.479 25.638 25.638 25.638h51.275c14.159 0 25.638-11.478 25.638-25.638s-11.479-25.638-25.638-25.638zM538.141 230.387h-51.275c-14.159 0-25.638 11.478-25.638 25.638s11.479 25.638 25.638 25.638h51.275c14.16 0 25.638-11.478 25.638-25.638s-11.478-25.638-25.638-25.638zM691.966 230.387h-51.275c-14.16 0-25.638 11.478-25.638 25.638s11.478 25.638 25.638 25.638h51.275c14.16 0 25.638-11.478 25.638-25.638s-11.478-25.638-25.638-25.638zM845.791 230.387h-51.275c-14.16 0-25.638 11.478-25.638 25.638s11.478 25.638 25.638 25.638h51.275c14.16 0 25.638-11.478 25.638-25.638s-11.478-25.638-25.638-25.638zM230.49 127.837h-51.275c-14.159 0-25.638 11.478-25.638 25.638s11.479 25.638 25.638 25.638h51.275c14.159 0 25.638-11.478 25.638-25.638s-11.479-25.638-25.638-25.638zM384.315 127.837h-51.275c-14.159 0-25.638 11.478-25.638 25.638s11.479 25.638 25.638 25.638h51.275c14.159 0 25.638-11.478 25.638-25.638s-11.479-25.638-25.638-25.638zM538.141 127.837h-51.275c-14.159 0-25.638 11.478-25.638 25.638s11.479 25.638 25.638 25.638h51.275c14.16 0 25.638-11.478 25.638-25.638s-11.478-25.638-25.638-25.638zM691.966 127.837h-51.275c-14.16 0-25.638 11.478-25.638 25.638s11.478 25.638 25.638 25.638h51.275c14.16 0 25.638-11.478 25.638-25.638s-11.478-25.638-25.638-25.638zM845.791 127.837h-51.275c-14.16 0-25.638 11.478-25.638 25.638s11.478 25.638 25.638 25.638h51.275c14.16 0 25.638-11.478 25.638-25.638s-11.478-25.638-25.638-25.638z" />
<glyph unicode="&#xe7a5;" glyph-name="phone" data-tags="phone, mobile, cellular" d="M717.601-77.264h-410.201c-42.409 0-76.913 34.502-76.913 76.913v871.676c0 42.409 34.504 76.913 76.913 76.913h410.201c42.411 0 76.913-34.504 76.913-76.913v-871.676c0-42.411-34.502-76.913-76.913-76.913zM307.4 896.962c-14.136 0-25.638-11.502-25.638-25.638v-871.676c0-14.136 11.502-25.638 25.638-25.638h410.201c14.136 0 25.638 11.502 25.638 25.638v871.676c0 14.136-11.502 25.638-25.638 25.638h-410.201zM563.776 794.412h-102.55c-14.159 0-25.638 11.479-25.638 25.638s11.479 25.638 25.638 25.638h102.55c14.16 0 25.638-11.479 25.638-25.638s-11.478-25.638-25.638-25.638zM384.312 820.050c0-14.159-11.479-25.638-25.638-25.638s-25.638 11.479-25.638 25.638c0 14.159 11.479 25.638 25.638 25.638s25.638-11.479 25.638-25.638zM512.5 25.286c-42.409 0-76.913 34.502-76.913 76.913s34.504 76.913 76.913 76.913c42.411 0 76.913-34.502 76.913-76.913s-34.502-76.913-76.913-76.913zM512.5 127.836c-14.136 0-25.638-11.502-25.638-25.638s11.502-25.638 25.638-25.638 25.638 11.502 25.638 25.638-11.502 25.638-25.638 25.638z" />
<glyph unicode="&#xe7ab;" glyph-name="tablet" data-tags="tablet, mobile" d="M820.151-77.264h-615.301c-42.409 0-76.913 34.502-76.913 76.913v871.676c0 42.409 34.504 76.913 76.913 76.913h615.301c42.411 0 76.913-34.504 76.913-76.913v-871.676c0-42.411-34.502-76.913-76.913-76.913zM204.85 896.962c-14.136 0-25.638-11.502-25.638-25.638v-871.676c0-14.136 11.502-25.638 25.638-25.638h615.301c14.136 0 25.638 11.502 25.638 25.638v871.676c0 14.136-11.502 25.638-25.638 25.638h-615.301zM538.138 820.050c0-14.159-11.479-25.638-25.638-25.638s-25.638 11.479-25.638 25.638c0 14.159 11.479 25.638 25.638 25.638s25.638-11.479 25.638-25.638zM512.5 25.286c-42.409 0-76.913 34.502-76.913 76.913s34.504 76.913 76.913 76.913c42.411 0 76.913-34.502 76.913-76.913s-34.502-76.913-76.913-76.913zM512.5 127.836c-14.136 0-25.638-11.502-25.638-25.638s11.502-25.638 25.638-25.638 25.638 11.502 25.638 25.638-11.502 25.638-25.638 25.638z" />
<glyph unicode="&#xe7d7;" glyph-name="bubbles" data-tags="bubbles, chat, comment" d="M999.63 50.925c-0.010 0.002-0.024 0.002-0.032 0-68.768 0-140.194 43.898-166.476 61.812-28.861-6.996-59.042-10.537-89.9-10.537-73.692 0-143.295 20.315-195.986 57.198-55.475 38.835-86.027 91.36-86.027 147.902s30.552 109.069 86.027 147.902c52.691 36.884 122.294 57.198 195.986 57.198s143.295-20.313 195.986-57.198c55.476-38.835 86.027-91.36 86.027-147.902 0-49.44-23.649-96.24-66.941-133.158 4.203-11.823 17.383-37.259 58.702-78.72 5.085-4.685 8.271-11.401 8.271-18.861 0-14.159-11.479-25.636-25.638-25.636zM838.216 166.195c5.528 0 10.978-1.789 15.484-5.203 0.499-0.376 34.622-25.868 77.089-43.156-27.875 40.75-27.195 63.97-24.641 73.737 1.464 5.598 4.778 10.535 9.404 14.011 37.666 28.296 58.408 64.42 58.408 101.717 0 39.327-22.785 76.937-64.155 105.896-44.155 30.907-103.314 47.929-166.583 47.929s-122.43-17.022-166.583-47.929c-41.369-28.959-64.155-66.567-64.155-105.896s22.785-76.937 64.155-105.896c44.155-30.907 103.314-47.929 166.583-47.929 30.496 0 60.136 3.961 88.095 11.774 2.27 0.633 4.593 0.945 6.898 0.945zM25.372-0.35c-11.524 0-21.632 7.689-24.706 18.793-3.077 11.106 1.637 22.897 11.518 28.826 86.697 52.018 122.665 127.601 135.416 162.994-94.226 72.153-147.864 171.998-147.864 276.499 0 52.782 13.249 103.907 39.38 151.958 24.938 45.861 60.495 86.933 105.681 122.078 91.638 71.275 213.114 110.527 342.051 110.527 116.83 0 229.765-33.040 318.002-93.034 88.946-60.476 147.195-144.153 164.016-235.617 2.561-13.927-6.651-27.291-20.577-29.852-13.923-2.553-27.291 6.649-29.854 20.577-14.322 77.871-64.9 149.784-142.418 202.491-79.819 54.271-182.515 84.16-289.169 84.16-240.322 0-435.839-149.513-435.839-333.288 0-93.082 51.507-182.646 141.314-245.728 8.81-6.187 12.814-17.219 10.028-27.616-5.993-22.358-26.402-83.72-80.997-142.944 66.757 23.375 138.627 63.925 191.715 100.433 6.305 4.334 14.218 5.629 21.576 3.525 48.629-13.909 99.837-20.958 152.204-20.958 14.159 0 25.638-11.478 25.638-25.638s-11.479-25.638-25.638-25.638c-52.985 0-104.953 6.636-154.663 19.736-22.006-14.658-63.133-40.663-112.251-65.101-76.274-37.946-141.735-57.186-194.562-57.186z" />
<glyph unicode="&#xe7fc;" glyph-name="chart-bars" data-tags="chart-bars, chart, statistics" d="M922.701-51.626h-820.401c-42.409 0-76.913 34.502-76.913 76.913v820.401c0 42.409 34.504 76.913 76.913 76.913h820.401c42.411 0 76.913-34.504 76.913-76.913v-820.401c0-42.411-34.502-76.913-76.913-76.913zM102.3 871.325c-14.136 0-25.638-11.502-25.638-25.638v-820.401c0-14.136 11.502-25.638 25.638-25.638h820.401c14.136 0 25.638 11.502 25.638 25.638v820.401c0 14.136-11.502 25.638-25.638 25.638h-820.401zM358.675 102.199h-102.55c-14.159 0-25.638 11.478-25.638 25.638v461.476c0 14.159 11.479 25.638 25.638 25.638h102.55c14.159 0 25.638-11.479 25.638-25.638v-461.476c0-14.16-11.479-25.638-25.638-25.638zM281.762 153.474h51.275v410.201h-51.275v-410.201zM563.776 102.199h-102.55c-14.159 0-25.638 11.478-25.638 25.638v615.301c0 14.159 11.479 25.638 25.638 25.638h102.55c14.16 0 25.638-11.479 25.638-25.638v-615.301c0-14.16-11.478-25.638-25.638-25.638zM486.862 153.474h51.275v564.026h-51.275v-564.026zM768.876 102.199h-102.55c-14.16 0-25.638 11.478-25.638 25.638v256.375c0 14.16 11.478 25.638 25.638 25.638h102.55c14.16 0 25.638-11.478 25.638-25.638v-256.375c0-14.16-11.478-25.638-25.638-25.638zM691.963 153.474h51.275v205.1h-51.275v-205.1z" />
<glyph unicode="&#xe7ff;" glyph-name="gift" data-tags="gift, birthday, prize, box" d="M973.975 717.501h-153.895c16.131 21.439 25.708 48.076 25.708 76.913 0 70.682-57.505 128.188-128.188 128.188-71.286 0-131.061-56.464-160.347-90.119-17.733-20.38-33.002-42.198-44.752-63.301-11.75 21.101-27.020 42.921-44.754 63.301-29.288 33.655-89.061 90.119-160.349 90.119-70.682 0-128.188-57.505-128.188-128.188 0-28.836 9.577-55.473 25.707-76.913h-153.894c-14.159 0-25.638-11.479-25.638-25.638v-153.825c0-14.159 11.479-25.638 25.638-25.638h25.638v-487.114c0-42.411 34.504-76.913 76.913-76.913h717.851c42.411 0 76.913 34.502 76.913 76.913v487.114h25.638c14.16 0 25.638 11.479 25.638 25.638v153.825c0 14.159-11.478 25.638-25.638 25.638zM595.933 798.824c40.094 46.077 84.44 72.503 121.666 72.503 42.411 0 76.913-34.504 76.913-76.913s-34.502-76.913-76.913-76.913h-173.199c8.867 22.654 26.797 52.896 51.533 81.322zM589.412-0.35h-153.825v666.576h153.825v-666.576zM230.486 794.414c0 42.409 34.504 76.913 76.913 76.913 37.227 0 81.573-26.426 121.666-72.503 24.735-28.428 42.666-58.668 51.533-81.322h-173.199c-42.409 0-76.913 34.504-76.913 76.913zM76.661 666.226h307.65v-102.55h-307.65v102.55zM127.936 25.287v487.114h256.375v-512.751h-230.738c-14.136 0-25.638 11.502-25.638 25.638zM897.062 25.287c0-14.136-11.502-25.638-25.638-25.638h-230.738v512.751h256.375v-487.114zM948.337 563.676h-307.65v102.55h307.65v-102.55z" />
<glyph unicode="&#xe837;" glyph-name="rocket" data-tags="rocket, spaceship, space, fast" d="M691.964 486.762c-70.682 0-128.188 57.505-128.188 128.188s57.505 128.188 128.188 128.188 128.188-57.505 128.188-128.188-57.505-128.188-128.188-128.188zM691.964 691.862c-42.409 0-76.913-34.504-76.913-76.913s34.504-76.913 76.913-76.913 76.913 34.504 76.913 76.913-34.504 76.913-76.913 76.913zM25.391-77.264c-6.685 0-13.238 2.617-18.133 7.51-7.044 7.044-9.369 17.528-5.966 26.889 78.896 216.966 161.85 326.978 246.556 326.978 27.924 0 54.058-11.978 77.68-35.598 37.337-37.337 38.668-74.503 33.21-99.105-17.15-77.3-126.356-153.046-324.59-225.132-2.857-1.040-5.822-1.544-8.759-1.544zM247.849 232.836c-25.391 0-55.271-22.247-86.408-64.331-30.623-41.39-61.364-100.352-91.66-175.735 68.452 27.518 123.483 55.46 164.046 83.327 54.728 37.597 70.912 66.66 74.852 84.417 3.95 17.805-2.398 34.733-19.41 51.743-13.847 13.847-27.394 20.577-41.42 20.577zM999.614 948.238c-133.043 0-251.625-22.567-352.455-67.080-83.119-36.692-154.301-88.204-211.568-153.107-10.689-12.116-20.582-24.37-29.735-36.64-44.207-2.946-89.406-20.5-134.559-52.298-38.186-26.89-76.571-64.108-114.090-110.62-63.058-78.168-101.855-155.215-103.476-158.458-5.613-11.227-2.253-24.85 7.916-32.213 4.507-3.263 9.773-4.863 15.014-4.863 6.582 0 13.128 2.523 18.091 7.445 0.243 0.24 24.75 24.335 66.566 47.996 34.461 19.503 87.59 42.398 151.835 46.452 16.243-41.602 62.754-91.315 85.079-113.636 22.324-22.324 72.036-68.835 113.638-85.080-4.052-64.246-26.949-117.374-46.45-151.833-23.664-41.818-47.756-66.324-47.96-66.529-8.891-8.891-10.021-22.918-2.67-33.118 4.959-6.88 12.788-10.649 20.812-10.649 3.873 0 7.791 0.878 11.451 2.708 3.242 1.622 80.287 40.419 158.458 103.476 46.511 37.519 83.729 75.905 110.62 114.089 31.797 45.154 49.35 90.353 52.298 134.56 12.269 9.152 24.526 19.047 36.64 29.737 64.901 57.265 116.414 128.447 153.108 211.568 44.508 100.829 67.078 219.412 67.078 352.455v25.638h-25.638zM159.085 445.314c48.869 70.904 123.565 158.827 207.75 186.505-33.27-58.288-50.496-111.855-56.694-145.768-59.41-3.632-110.629-20.92-151.057-40.737zM522.385 82.189c19.791 40.409 37.049 91.587 40.679 150.939 33.909 6.196 87.464 23.418 145.741 56.68-27.699-84.043-115.55-158.722-186.42-207.619zM771.141 397.025c-106.636-94.090-217.112-115.364-233.004-115.364-0.102 0-10.596 0.23-38.924 20.166-19.757 13.904-42.745 33.667-64.725 55.647-21.982 21.982-41.744 44.968-55.647 64.727-19.935 28.327-20.166 38.82-20.166 38.923 0 15.893 21.274 126.367 115.366 233.004 112.581 127.593 284.95 197.348 499.626 202.524-5.178-214.673-74.932-387.044-202.526-499.626z" />
<glyph unicode="&#xe857;" glyph-name="truck" data-tags="truck, delivery, shipping" d="M1014.7 439.521l-0.213 1.064c-0.010 0.042-0.018 0.086-0.026 0.13l-20.481 102.396c-0.011 0.056-0.022 0.114-0.034 0.171l-10.41 52.052c-7.95 39.752-45.931 70.891-86.47 70.891h-205.1c-8.987 0-17.613-1.565-25.638-4.409v30.047c0 42.409-34.504 76.913-76.913 76.913h-512.751c-42.409 0-76.913-34.504-76.913-76.913v-410.201c0-42.409 34.504-76.913 76.913-76.913h76.913c0-56.547 46.003-102.55 102.55-102.55s102.55 46.003 102.55 102.55h260.785c10.581-29.841 39.081-51.275 72.503-51.275h39.434c17.759-30.621 50.88-51.275 88.754-51.275s70.995 20.654 88.754 51.275h39.434c42.411 0 76.913 34.502 76.913 76.913v102.55c0 29.67-4.733 77.482-10.553 106.583zM958.088 461.126h-137.935v51.275h127.68l10.255-51.275zM256.127 153.475c-28.274 0-51.275 23.001-51.275 51.275s23.001 51.275 51.275 51.275 51.275-23.001 51.275-51.275-23.001-51.275-51.275-51.275zM344.881 256.026c-17.759 30.621-50.88 51.275-88.754 51.275s-70.994-20.654-88.754-51.275h-90.709c-14.136 0-25.638 11.502-25.638 25.638v410.201c0 14.136 11.502 25.638 25.638 25.638h512.751c14.136 0 25.638-11.502 25.638-25.638v-435.839h-270.172zM820.153 153.475c-28.274 0-51.275 23.001-51.275 51.275s23.001 51.275 51.275 51.275 51.275-23.001 51.275-51.275-23.001-51.275-51.275-51.275zM948.341 204.75h-25.638c0 56.547-46.003 102.55-102.55 102.55s-102.55-46.003-102.55-102.55h-25.638c-14.136 0-25.638 11.502-25.638 25.638v358.926c0 14.136 11.502 25.638 25.638 25.638h205.1c16.12 0 33.029-13.864 36.191-29.67l4.321-21.605h-143.063c-14.16 0-25.638-11.479-25.638-25.638v-102.55c0-14.16 11.478-25.638 25.638-25.638h173.203c2.309-16.034 4.224-34.6 5.306-51.275h-24.684c-14.16 0-25.638-11.478-25.638-25.638s11.478-25.638 25.638-25.638h25.638v-76.913c0-14.136-11.502-25.638-25.638-25.638z" />
<glyph unicode="&#xe884;" glyph-name="earth" data-tags="earth, globe, international, language" d="M875.070 798.057c-96.846 96.846-225.608 150.182-362.569 150.182s-265.723-53.336-362.569-150.182c-96.846-96.846-150.182-225.608-150.182-362.569s53.336-265.723 150.182-362.569c96.846-96.846 225.608-150.182 362.569-150.182s265.723 53.336 362.569 150.182c96.846 96.846 150.182 225.608 150.182 362.569s-53.336 265.723-150.182 362.569zM943.049 601.553c-10.004 18.014-35.101 26.551-67.952 37.716-35.233 11.975-47.678 48.193-62.085 90.129-12.508 36.404-25.435 73.982-56.151 97.381 84.021-52.661 149.952-131.599 186.188-225.226zM799.155 425.716c3.878-34.734 7.887-70.649-35.214-119.048-11.646-13.075-18.467-31.284-25.691-50.564-16.725-44.648-32.534-86.836-99.788-87.453-1.885 2.265-7.253 10.749-11.999 37.588-4.372 24.734-6.896 56.689-9.569 90.521-4.099 51.91-8.744 110.744-21.576 159.554-16.406 62.416-43.931 99.286-84.149 112.719-17.548 5.862-35.463 8.711-54.773 8.711-14.232 0-27.165-1.524-38.574-2.868-8.888-1.047-17.283-2.037-24.377-2.037 0 0-0.002 0-0.003 0-12.005 0-25.61 0-42.34 38.346-24.056 55.134-6.313 143.477 64.296 190.066 38.718 25.546 65.432 36.446 89.331 36.446 19.054 0 39.639-6.631 68.831-22.179 34.469-18.357 61.469-20.71 81.145-20.71 7.801 0 14.872 0.419 21.714 0.827 5.735 0.339 11.15 0.662 16.163 0.662 11.276 0 20.417-1.469 31.133-8.789 19.752-13.492 29.98-43.258 40.807-74.773 16.416-47.785 35.024-101.948 94.079-122.016 7.937-2.697 21.608-7.344 31.262-11.383-8.34-8.62-22.318-21.098-35.973-33.289-8.821-7.874-18.816-16.797-29.895-26.897-32.012-29.175-28.202-63.314-24.839-93.433zM51.075 439.424c5.528-0.993 11.51-2.144 17.631-3.451 28.818-6.15 42.297-11.703 48.188-14.819-2.71-5.285-8.199-13.075-11.828-18.222-12.687-18.003-28.477-40.408-22.47-65.080 4.052-16.642 0.633-37.086-5.256-55.965-17.019 48.075-26.316 99.77-26.316 153.603 0 1.316 0.038 2.622 0.050 3.936zM512.5-25.988c-175.637 0-328.654 98.638-406.609 243.419 13.442 25.591 38.37 82.174 26.719 131.74 0.807 4.977 9.262 16.975 14.37 24.222 13.895 19.717 31.186 44.254 18.377 70.255-8.989 18.249-33.005 30.579-80.298 41.23-10.955 2.467-21.626 4.476-30.695 6.028 27.464 228.424 222.433 406.059 458.136 406.059 80.894 0 156.979-20.948 223.157-57.666-16.354 7.144-31.199 8.278-43.077 8.278-6.532 0-12.976-0.382-19.204-0.753-6.094-0.362-12.392-0.735-18.672-0.735-14.563 0-32.73 1.745-57.042 14.691-37.11 19.763-64.903 28.197-92.931 28.197-34.686 0-69.846-13.434-117.569-44.922-41.257-27.221-72.335-68.88-87.509-117.305-14.8-47.235-13.219-95.558 4.454-136.066 20.854-47.798 48.407-69.114 89.334-69.115 0.003 0 0.003 0 0.006 0 10.105 0 19.952 1.16 30.378 2.389 10.497 1.237 21.351 2.515 32.573 2.515 13.89 0 26.133-1.929 38.529-6.070 22.521-7.523 39.139-32.749 50.803-77.121 11.665-44.375 16.122-100.785 20.051-150.554 3.279-41.515 6.375-80.728 13.195-110.288 4.142-17.95 9.508-31.584 16.403-41.682 10.298-15.080 25.068-23.384 41.587-23.384 45.335 0 81.549 14.615 107.628 43.437 21.691 23.969 32.77 53.544 41.674 77.307 5.253 14.024 10.685 28.524 15.965 34.453 58.304 65.469 52.28 119.433 47.883 158.835-3.231 28.93-3.29 39.18 8.42 49.854 10.88 9.919 20.771 18.749 29.497 26.538 18.595 16.6 32.031 28.596 41.457 38.887 6.473 7.068 21.635 23.619 17.42 44.345-0.037 0.184-0.088 0.358-0.126 0.54 17.584-48.773 27.194-101.322 27.194-156.079 0-254.458-207.017-461.476-461.476-461.476z" />
<glyph unicode="&#xe886;" glyph-name="network" data-tags="network, globe" d="M856.941 779.928c-92.004 92.004-214.328 142.673-344.44 142.673s-252.437-50.669-344.44-142.673-142.673-214.327-142.673-344.44c0-130.112 50.669-252.437 142.673-344.44s214.328-142.673 344.44-142.673 252.437 50.668 344.44 142.673c92.005 92.004 142.673 214.328 142.673 344.44s-50.668 252.437-142.673 344.44zM794.127 461.125c-1.617 54.942-8.409 108.236-19.974 158.065 18.376-7.456 35.838-15.735 52.207-24.828 67.134-37.296 108.5-83.865 119.185-133.237h-151.42zM742.824 461.125h-204.687v204.687c62.938-1.957 123.298-11.102 177.967-26.721 15.618-54.667 24.764-115.027 26.721-177.967zM538.138 717.114v151.422c49.371-10.687 95.939-52.052 133.235-119.185 9.095-16.37 17.374-33.834 24.828-52.207-49.828 11.563-103.122 18.355-158.063 19.972zM486.862 868.535v-151.422c-54.942-1.616-108.236-8.409-158.065-19.972 7.456 18.374 15.735 35.838 24.828 52.207 37.296 67.134 83.865 108.5 133.237 119.185zM486.862 665.812v-204.687h-204.687c1.957 62.938 11.102 123.298 26.721 177.967 54.667 15.62 115.027 24.764 177.967 26.721zM230.873 461.125h-151.422c10.685 49.371 52.052 95.941 119.185 133.237 16.37 9.093 33.834 17.372 52.207 24.828-11.563-49.83-18.355-103.124-19.972-158.065zM230.873 409.85c1.616-54.942 8.409-108.236 19.972-158.065-18.374 7.454-35.838 15.733-52.207 24.828-67.133 37.297-108.497 83.865-119.184 133.237h151.42zM282.176 409.85h204.687v-204.687c-62.938 1.957-123.298 11.102-177.967 26.721-15.62 54.667-24.764 115.029-26.721 177.967zM486.862 153.861v-151.42c-49.371 10.685-95.941 52.049-133.237 119.184-9.095 16.37-17.374 33.834-24.83 52.209 49.831-11.564 103.125-18.357 158.066-19.974zM538.138 2.44v151.42c54.942 1.617 108.236 8.409 158.065 19.974-7.454-18.376-15.733-35.839-24.828-52.209-37.297-67.134-83.865-108.498-133.237-119.184zM538.138 205.163v204.687h204.687c-1.957-62.937-11.102-123.298-26.721-177.967-54.667-15.618-115.027-24.764-177.967-26.721zM794.127 409.85h151.42c-10.685-49.371-52.050-95.939-119.185-133.235-16.37-9.095-33.832-17.374-52.206-24.828 11.563 49.828 18.355 103.122 19.972 158.063zM919.208 592.122c-19.39 16.911-42.081 32.693-67.944 47.063-28.696 15.944-60.33 29.617-94.191 40.878-11.258 33.86-24.935 65.493-40.878 94.189-14.37 25.865-30.15 48.556-47.063 67.945 114.526-44.259 205.818-135.55 250.075-250.075zM355.866 842.195c-16.911-19.388-32.693-42.081-47.063-67.944-15.944-28.696-29.617-60.33-40.878-94.189-33.86-11.259-65.493-24.935-94.189-40.878-25.864-14.368-48.556-30.151-67.944-47.063 44.257 114.525 135.548 205.816 250.073 250.073zM105.79 278.855c19.39-16.913 42.081-32.693 67.945-47.063 28.696-15.942 60.33-29.617 94.189-40.878 11.259-33.861 24.935-65.494 40.878-94.191 14.368-25.865 30.151-48.556 47.063-67.944-114.525 44.257-205.816 135.548-250.075 250.075zM669.132 28.78c16.913 19.388 32.693 42.081 47.063 67.944 15.944 28.696 29.617 60.33 40.879 94.191 33.86 11.258 65.493 24.935 94.189 40.878 25.865 14.37 48.557 30.15 67.944 47.063-44.257-114.526-135.548-205.818-250.075-250.075z" />
<glyph unicode="&#xe8aa;" glyph-name="alarm" data-tags="alarm, bell" d="M886.818 173.955c-58.662 44.064-92.306 111.357-92.306 184.62v153.825c0 128.85-86.86 237.79-205.098 271.351l-0.002 36.299c0 42.409-34.502 76.913-76.913 76.913-42.409 0-76.913-34.504-76.913-76.913v-36.298c-118.24-33.561-205.1-142.503-205.1-271.352v-153.825c0-73.265-33.644-140.555-92.306-184.62-8.821-6.625-12.413-18.152-8.92-28.615 3.491-10.463 13.286-17.522 24.319-17.522h233.324c-1.712-8.396-2.591-16.98-2.591-25.618 0-70.682 57.505-128.188 128.188-128.188s128.188 57.505 128.188 128.188c0 8.638-0.879 17.222-2.588 25.618h233.323c11.032 0 20.825 7.056 24.319 17.522s-0.101 21.989-8.922 28.615zM486.861 820.052c0 14.136 11.502 25.638 25.638 25.638s25.638-11.502 25.638-25.638v-26.813c-8.447 0.764-16.995 1.178-25.638 1.178s-17.191-0.413-25.638-1.178v26.813zM589.412 102.2c0-42.409-34.504-76.913-76.913-76.913s-76.913 34.504-76.913 76.913c0 8.773 1.517 17.437 4.4 25.618h145.026c2.882-8.18 4.4-16.845 4.4-25.618zM217.238 179.094c13.094 15.849 24.473 33.099 33.793 51.345 20.392 39.916 30.73 83.028 30.73 128.137v153.825c0 127.229 103.508 230.738 230.738 230.738s230.738-103.508 230.738-230.738v-153.825c0-45.109 10.338-88.22 30.73-128.137 9.321-18.246 20.699-35.497 33.793-51.345h-590.523z" />
<glyph unicode="&#xe8dd;" glyph-name="sync" data-tags="sync, spinner, loading, arrows" d="M897.058 358.576c-3.303-0.002-6.633 0.636-9.805 1.952-9.58 3.968-15.826 13.315-15.826 23.686v51.275c0 197.912-161.014 358.926-358.926 358.926-133.446 0-255.12-73.358-317.542-191.443-6.617-12.517-22.134-17.299-34.648-10.684-12.517 6.617-17.302 22.131-10.684 34.648 71.326 134.934 210.37 218.756 362.873 218.756 109.568 0 212.581-42.669 290.056-120.144 75-75 117.38-173.927 120.014-279.567l58.916 58.916c10.012 10.013 26.245 10.013 36.256 0 10.013-10.012 10.013-26.245 0-36.256l-102.55-102.55c-4.905-4.905-11.463-7.51-18.136-7.51zM512.5 25.287c-109.568 0-212.579 42.669-290.056 120.144-75 75-117.38 173.929-120.014 279.567l-58.916-58.916c-10.013-10.012-26.245-10.012-36.256 0-10.013 10.012-10.013 26.245 0 36.256l102.55 102.55c7.333 7.334 18.358 9.526 27.94 5.558 9.58-3.968 15.826-13.315 15.826-23.686v-51.275c0-197.912 161.014-358.926 358.926-358.926 133.446 0 255.122 73.358 317.542 191.445 6.615 12.517 22.127 17.302 34.648 10.684 12.517-6.617 17.302-22.131 10.684-34.648-71.327-134.936-210.37-218.758-362.873-218.758z" />
<glyph unicode="&#xe8e8;" glyph-name="clock" data-tags="clock, time" d="M856.943 779.928c-92.004 92.004-214.33 142.673-344.442 142.673s-252.437-50.669-344.44-142.673c-92.004-92.004-142.673-214.328-142.673-344.44s50.669-252.439 142.673-344.442 214.328-142.671 344.44-142.671 252.439 50.668 344.442 142.671 142.671 214.33 142.671 344.442-50.668 252.437-142.671 344.44zM512.5-0.351c-240.322 0-435.839 195.516-435.839 435.839s195.516 435.839 435.839 435.839 435.839-195.516 435.839-435.839-195.516-435.839-435.839-435.839zM801.136 602.132c-7.080 12.263-22.761 16.459-35.021 9.384l-252.289-145.658-196.63 137.683c-11.599 8.122-27.586 5.302-35.706-6.295s-5.302-27.584 6.295-35.706l210.009-147.051c0.051-0.035 0.106-0.066 0.158-0.101 0.429-0.296 0.867-0.575 1.312-0.844 0.118-0.072 0.237-0.147 0.357-0.216 0.446-0.259 0.902-0.502 1.365-0.735 0.11-0.056 0.219-0.118 0.33-0.171 0.519-0.251 1.048-0.485 1.584-0.702 0.315-0.126 0.635-0.234 0.951-0.35 0.234-0.085 0.467-0.17 0.703-0.246 0.346-0.112 0.692-0.213 1.040-0.309 0.219-0.062 0.438-0.122 0.66-0.178 0.347-0.088 0.697-0.166 1.047-0.238 0.237-0.048 0.477-0.093 0.716-0.136 0.331-0.058 0.662-0.115 0.993-0.16 0.299-0.042 0.601-0.072 0.902-0.101 0.274-0.029 0.547-0.061 0.82-0.080 0.595-0.040 1.191-0.066 1.789-0.066 0.972 0 1.947 0.062 2.921 0.174 0.024 0.003 0.050 0.005 0.074 0.006 0.947 0.112 1.891 0.285 2.828 0.502 0.069 0.018 0.139 0.032 0.208 0.048 0.884 0.214 1.761 0.48 2.63 0.795 0.128 0.045 0.253 0.094 0.379 0.142 0.814 0.307 1.622 0.654 2.413 1.053 0.162 0.080 0.317 0.17 0.477 0.254 0.286 0.15 0.577 0.294 0.86 0.458l266.433 153.825c12.266 7.079 16.467 22.758 9.388 35.021z" />
<glyph unicode="&#xe900;" glyph-name="pinterest" data-tags="pinterest, brand, social" d="M512.5 947.988c-282.676 0-512.5-229.824-512.5-512.5s229.824-512.5 512.5-512.5 512.5 229.824 512.5 512.5-229.824 512.5-512.5 512.5zM512.5-8.546c-45.845 0-89.888 7.007-131.528 19.819 18.018 29.429 45.244 77.876 55.254 116.314 5.405 20.82 27.627 105.503 27.627 105.503 14.414-27.627 56.856-51.050 101.699-51.050 133.931 0 230.425 123.12 230.425 276.27 0 146.743-119.717 256.45-273.667 256.45-191.587 0-293.286-128.726-293.286-268.662 0-65.064 34.634-146.143 90.088-171.968 8.408-4.004 12.813-2.202 14.814 6.006 1.401 6.206 9.009 36.235 12.412 50.449 1.001 4.404 0.601 8.408-3.003 12.813-18.418 22.222-33.032 63.262-33.032 101.299 0 97.896 74.072 192.788 200.396 192.788 109.107 0 185.381-74.273 185.381-180.576 0-120.117-60.659-203.399-139.536-203.399-43.643 0-76.274 36.035-65.664 80.278 12.612 52.852 36.836 109.707 36.836 147.744 0 34.033-18.218 62.461-56.255 62.461-44.644 0-80.278-46.045-80.278-107.905 0-39.238 13.213-65.864 13.213-65.864s-44.043-185.982-52.051-220.615c-9.009-38.438-5.405-92.29-1.602-127.324-165.161 64.463-282.276 225.020-282.276 413.204 0 245.239 198.794 444.034 444.034 444.034s444.034-198.794 444.034-444.034c0-245.239-198.794-444.034-444.034-444.034z" />
<glyph unicode="&#xe901;" glyph-name="pinterest1" data-tags="pinterest, brand, social" d="M512.5 879.622c-245.239 0-444.034-198.794-444.034-444.034 0-188.184 117.114-348.741 282.276-413.404-3.804 35.034-7.407 89.087 1.602 127.324 8.008 34.634 52.051 220.615 52.051 220.615s-13.213 26.626-13.213 65.864c0 61.66 35.835 107.905 80.278 107.905 37.837 0 56.255-28.428 56.255-62.461 0-38.037-24.224-95.093-36.836-147.744-10.61-44.243 22.022-80.278 65.664-80.278 78.877 0 139.536 83.281 139.536 203.399 0 106.304-76.475 180.576-185.381 180.576-126.323 0-200.396-94.692-200.396-192.788 0-38.237 14.614-79.077 33.032-101.299 3.604-4.404 4.204-8.208 3.003-12.813-3.403-14.014-10.811-44.243-12.412-50.449-2.002-8.208-6.406-9.81-14.814-6.006-55.454 25.825-90.088 106.904-90.088 171.968 0 140.137 101.699 268.662 293.286 268.662 153.95 0 273.667-109.707 273.667-256.45 0-152.949-96.494-276.27-230.425-276.27-45.044 0-87.285 23.423-101.699 51.050 0 0-22.222-84.683-27.627-105.503-10.010-38.638-37.036-86.885-55.254-116.314 41.641-12.813 85.684-19.819 131.528-19.819 245.239 0 444.034 198.794 444.034 444.034 0 245.44-198.794 444.234-444.034 444.234z" />
<glyph unicode="&#xe902;" glyph-name="linkedin" data-tags="linkedin, brand, social" d="M384.375 595.644h177.279v-90.871h2.534c24.664 44.237 85.041 90.871 175.013 90.871 187.129 0 221.737-116.49 221.737-267.996v-308.567h-184.79v273.545c0 65.248-1.335 149.172-96.122 149.172-96.242 0-110.928-71.055-110.928-144.433v-278.284h-184.722v576.563zM64.063 595.644h192.188v-576.563h-192.188v576.563zM256.25 755.801c0-53.071-43.023-96.094-96.094-96.094s-96.094 43.023-96.094 96.094c0 53.071 43.023 96.094 96.094 96.094s96.094-43.023 96.094-96.094z" />
<glyph unicode="&#xe903;" glyph-name="linkedin1" data-tags="linkedin, brand, social" d="M928.907 947.988h-832.813c-52.852 0-96.094-43.242-96.094-96.094v-832.813c0-52.852 43.242-96.094 96.094-96.094h832.813c52.852 0 96.094 43.242 96.094 96.094v832.813c0 52.852-43.242 96.094-96.094 96.094zM384.375 115.175h-128.125v448.438h128.125v-448.438zM320.313 627.675c-35.435 0-64.063 28.628-64.063 64.063s28.628 64.063 64.063 64.063c35.435 0 64.063-28.628 64.063-64.063s-28.628-64.063-64.063-64.063zM832.813 115.175h-128.125v256.25c0 35.435-28.628 64.063-64.063 64.063s-64.063-28.628-64.063-64.063v-256.25h-128.125v448.438h128.125v-79.478c26.426 36.235 66.865 79.478 112.109 79.478 79.678 0 144.141-71.67 144.141-160.156v-288.282z" />
<glyph unicode="&#xe904;" glyph-name="soundcloud" data-tags="soundcloud, brand, social" d="M928.907 947.988h-832.813c-52.852 0-96.094-43.242-96.094-96.094v-832.813c0-52.852 43.242-96.094 96.094-96.094h832.813c52.852 0 96.094 43.242 96.094 96.094v832.813c0 52.852-43.242 96.094-96.094 96.094zM176.172 243.3h-32.031l-16.016 96.094 16.016 96.094h32.031l16.016-96.094-16.016-96.094zM304.297 243.3h-32.031l-16.016 128.125 16.016 128.125h32.031l16.016-128.125-16.016-128.125zM432.422 243.3h-32.031l-16.016 192.188 16.016 192.188h32.031l16.016-192.188-16.016-192.188zM826.007 243.3c-2.002 0-301.494 0.2-301.695 0.2-6.406 0.601-11.611 6.206-11.812 12.813v345.537c0 6.406 2.202 9.609 10.41 12.813 21.221 8.208 45.044 13.013 69.668 13.013 100.298 0 182.578-76.875 191.387-175.171 13.013 5.405 27.227 8.408 42.041 8.408 60.059 0 108.906-48.848 108.906-108.906s-48.848-108.706-108.906-108.706z" />
<glyph unicode="&#xe905;" glyph-name="soundcloud1" data-tags="soundcloud, brand, social" d="M892.832 465.313c-18.104 0-35.383-3.523-51.114-9.866-10.516 114.47-110.398 204.259-232.227 204.259-29.815 0-58.739-5.636-84.4-15.179-9.97-3.706-12.59-7.527-12.59-14.931v-403.108c0-7.774 6.246-14.248 14.138-15.011 0.336-0.034 363.891-0.21 366.248-0.21 72.975 0 132.115 56.872 132.115 127.018s-59.192 127.026-132.169 127.026zM400.391 211.269h32.031l16.016 224.439-16.016 223.999h-32.031l-16.016-223.999zM304.297 211.269h-32.031l-16.016 162.909 16.016 157.404h32.031l16.016-160.156zM144.141 211.269h32.031l16.016 128.125-16.016 128.125h-32.031l-16.016-128.125zM16.016 275.331h32.031l16.016 64.063-16.016 64.063h-32.031l-16.016-64.063z" />
<glyph unicode="&#xe906;" glyph-name="youtube" data-tags="youtube, brand, social" horiz-adv-x="2572" d="M343.832 778.421c0.209 0.866 0.344 1.48 0.388 1.802l1.043 7.566-47.395 0.267c-42.821 0.242-55.925-0.007-57.103-1.085-0.566-0.517-15.348-56.688-41.696-158.428-12.568-48.531-23.147-87.291-23.51-86.135s-15.406 56.553-33.43 123.1c-18.024 66.547-33.136 121.362-33.583 121.811-0.624 0.624-58.037 0.901-104.519 0.502-6.742-0.056-10.487 13.123 60.080-211.339 9.769-31.071 24.395-75.070 32.501-97.774 9.342-26.167 16.005-46.368 20.554-63.235 8.046-32.098 8.327-52.214 6.571-75.699-2.028-27.127-2.323-218.652-0.342-221.855 1.513-2.451 91.312-3.593 99.809-1.269 1.359 0.372 2.267 1.693 2.873 8.937 2.121 6.225 2.288 30.999 2.288 133.875v131.409l5.748 18.13c3.76 11.861 13.214 43.037 21.010 69.288 7.797 26.248 17.227 57.675 20.958 69.839 33.867 110.427 66.205 219.045 67.059 225.231l0.694 5.061zM846.433 619.013l-0.021-6.845-1.066-0.014-0.596-189.178-0.578-183.406-14.68-14.944c-16.44-16.735-29.614-23.124-41.529-20.133-12.976 3.257-12.652-1.802-13.735 214.978l-0.999 199.542h-94.408v-6.858h-1.087v-216.5c0-231.964-0.007-231.825 11.763-255.124 9.375-18.554 23.032-27.586 46.436-30.701h0.002c30.82-4.104 64.064 9.859 94.863 39.848l13.386 13.035v-22.467c0-19.415 0.555-22.623 4.074-23.603 5.762-1.607 77.248-1.709 84.973-0.126l6.402 1.315v6.634l1.087 0.223v495.582l-94.287-1.259zM606.969 521.239c-8.944 38.378-25.705 64.178-53.285 82.019-43.323 28.026-92.809 30.987-138.721 8.299-33.458-16.531-55.005-43.957-66.136-84.165-1.327-4.791-2.3-8.821-3.036-14.829-2.833-14.198-3.166-35.386-3.893-134.082-1.122-152.077 0.617-170.169 19.662-204.71 18.682-33.881 57.459-58.718 99.669-63.844 12.708-1.542 38.468 0.859 53.282 4.966 33.665 9.335 65.928 35.941 80.196 66.143 6.164 13.046 9.885 22.118 12.127 38.689 4.179 22.639 4.474 59.233 4.474 152.524-0.002 118.991-0.379 131.991-4.341 148.993zM499.312 211.263c-7.915-6.034-21.755-8.657-33.015-6.255-8.664 1.849-20.358 15.434-23.957 27.828-4.483 15.451-4.828 230.21-0.955 272.325 6.385 21.075 24.214 32.081 43.678 26.839 15.172-4.086 22.937-13.588 27.363-33.49 3.285-14.768 3.674-33.161 2.975-141.398-0.46-71.771-0.717-106.846-3.061-125.676-2.384-11.882-6.325-15.062-13.028-20.174zM2302.121 413.326h45.615l-0.727 41.321c-0.706 37.906-1.264 42.241-6.33 52.523-7.99 16.226-19.778 23.424-38.484 23.424-22.47 0-36.714-10.86-43.43-33.173-2.861-9.495-5.869-74.758-3.711-80.387 1.206-3.147 7.732-3.709 47.067-3.709zM1997.229 507.318c-6.083 12.259-17.402 18.296-30.555 17.823-10.231-0.365-21.582-4.682-32.52-13.023l-8.148-6.183v-296.888l8.148-6.183c18.447-14.066 38.712-17.048 52.67-7.711 5.524 3.695 9.126 8.788 11.931 16.877 3.651 10.534 3.969 24.026 3.492 148.917-0.495 130.17-0.782 137.837-5.019 146.369zM2562.865 641.053c-9.089 108.948-16.319 144.306-38.789 189.729-29.758 60.16-72.763 91.878-134.007 98.844-47.355 5.384-225.535 12.983-390.425 16.647-285.467 6.344-754.794-5.864-814.735-21.194-27.7-7.084-48.473-19.129-70.090-40.644-37.881-37.699-60.45-91.769-69.52-166.559-20.712-170.773-21.155-377.095-1.189-554.056 8.585-76.115 26.269-125.566 59.468-166.321 20.714-25.431 56.407-47.044 88.346-53.494 22.407-4.527 134.551-10.809 297.896-16.684 24.33-0.875 88.754-2.381 143.17-3.347 113.412-2.014 321.941-0.822 441.15 2.521 80.205 2.251 226.422 8.18 253.748 10.292 7.685 0.594 25.494 1.73 39.576 2.525 47.323 2.673 77.429 12.58 105.699 34.794 36.589 28.746 64.92 81.875 76.89 144.178 11.325 58.952 18.905 163.933 20.442 283.127 1.285 99.588-0.426 153.325-7.628 239.643zM1426.15 680.532l-53.034-0.655-2.328-565.695-45.977-0.582c-35.56-0.488-46.352 0.044-47.213 2.328-0.617 1.628-1.357 129.146-1.674 283.43l-0.582 280.52-103.594 1.308v88.39l306.128-1.236 1.308-87.154-53.034-0.655zM1751.41 356.29v-243.273h-83.807v25.608c0 19.266-0.736 25.608-2.982 25.608-1.642 0-9.235-6.35-16.877-14.112-16.573-16.833-36.206-30.397-52.962-36.666-34.696-12.981-67.655-5.405-81.698 18.768-12.851 22.132-13.095 27.078-13.095 256.586v210.753h83.735l0.655-198.459c0.624-195.011 0.715-198.587 5.382-206.535 6.188-10.531 15.623-13.36 30.627-9.24 8.826 2.425 14.851 6.714 29.171 20.951l18.042 17.97v375.313h83.807v-243.273zM2078.271 147.794c-7.379-16.44-23.829-32.541-37.319-36.521-35.201-10.392-63.437-1.925-96.029 28.736-10.113 9.514-19.529 17.241-20.951 17.241-1.714 0-2.619-7.456-2.619-22.116v-22.116h-83.807v656.486h83.807v-107.087c0-58.898 0.787-107.087 1.746-107.087s9.799 7.815 19.643 17.315c22.651 21.862 41.589 31.43 65.621 33.245 42.853 3.243 68.394-18.812 80.096-69.185 3.651-15.711 4.002-33.658 4.002-179.253-0.002-177.351-0.021-178.092-14.189-209.662zM2432.85 245.131c-0.745-18.244-2.957-39.175-4.947-46.559-11.653-43.209-42.677-73.803-87.517-86.353-60.374-16.894-126.828 10.788-153.355 63.874-14.89 29.798-15.423 35.741-15.423 181.362 0 118.733 0.419 133.301 4.218 149.5 10.758 45.833 37.429 75.496 82.571 91.955 13.081 4.77 26.734 7.214 40.376 7.493 48.72 0.999 97.079-25.205 117.344-67.874 13.672-28.788 15.365-41.1 16.733-122.218l1.236-72.749-178.671-1.236-0.655-48.888c-0.931-68.968 3.72-90.176 22.335-102.721 15.66-10.55 39.718-9.755 52.817 1.746 12.275 10.779 15.741 22.358 16.95 56.162l1.092 29.682h86.279l-1.382-33.175z" />
<glyph unicode="&#xe907;" glyph-name="youtube1" data-tags="youtube, brand, social" d="M1014.591 640.388c0 0-10.010 70.669-40.84 101.699-39.038 40.84-82.681 41.040-102.7 43.442-143.34 10.41-358.55 10.41-358.55 10.41h-0.4c0 0-215.21 0-358.55-10.41-20.020-2.402-63.662-2.603-102.7-43.442-30.83-31.030-40.64-101.699-40.64-101.699s-10.21-82.881-10.21-165.962v-77.676c0-82.881 10.21-165.962 10.21-165.962s10.010-70.669 40.64-101.699c39.038-40.84 90.288-39.439 113.11-43.843 82.080-7.808 348.54-10.21 348.54-10.21s215.41 0.4 358.75 10.61c20.020 2.402 63.662 2.603 102.7 43.442 30.83 31.030 40.84 101.699 40.84 101.699s10.21 82.881 10.21 165.962v77.676c-0.2 82.881-10.41 165.962-10.41 165.962zM406.397 302.458v288.081l276.87-144.541-276.87-143.54z" />
<glyph unicode="&#xe908;" glyph-name="twitter" data-tags="twitter, brand, tweet, social" d="M1025.101 753.398c-37.637-16.816-78.276-28.027-120.718-33.032 43.442 26.025 76.675 67.266 92.49 116.314-40.64-24.023-85.684-41.641-133.53-51.050-38.438 40.84-93.091 66.265-153.55 66.265-116.113 0-210.205-94.092-210.205-210.205 0-16.416 1.802-32.432 5.405-47.847-174.771 8.809-329.722 92.49-433.423 219.815-18.018-31.030-28.428-67.266-28.428-105.703 0-72.871 37.036-137.334 93.491-174.971-34.434 1.001-66.865 10.61-95.293 26.226 0-0.801 0-1.802 0-2.603 0-101.9 72.471-186.983 168.765-206.201-17.617-4.805-36.235-7.407-55.454-7.407-13.613 0-26.626 1.401-39.639 3.804 26.826-83.482 104.502-144.341 196.392-146.143-72.070-56.455-162.559-90.088-261.255-90.088-17.017 0-33.633 1.001-50.249 3.003 93.291-59.858 203.799-94.492 322.515-94.492 386.778 0 598.384 320.513 598.384 598.384 0 9.209-0.2 18.218-0.601 27.227 41.040 29.429 76.675 66.465 104.902 108.706z" />
<glyph unicode="&#xe909;" glyph-name="telegram" data-tags="telegram, brand, social" d="M512.5 947.988c-283.076 0-512.5-229.424-512.5-512.5s229.424-512.5 512.5-512.5 512.5 229.424 512.5 512.5-229.424 512.5-512.5 512.5zM764.346 596.645l-84.082-396.187c-5.806-28.228-22.822-34.834-46.445-21.821l-128.125 94.692-61.46-59.858c-7.207-7.007-12.813-12.813-25.625-12.813-16.616 0-13.813 6.206-19.419 22.022l-43.643 143.34-126.724 39.439c-27.427 8.408-27.627 27.227 6.206 40.64l493.682 190.586c22.422 10.21 44.243-5.405 35.635-40.039z" />
<glyph unicode="&#xe90a;" glyph-name="whatsapp" data-tags="whatsapp, brand, social" d="M873.753 799.043c-95.894 96.094-223.418 148.945-359.351 148.945-279.873 0-507.696-227.822-507.696-507.896 0-89.487 23.423-176.973 67.866-253.848l-72.070-263.257 269.263 70.669c74.273-40.439 157.754-61.86 242.637-61.86h0.2c0 0 0 0 0 0 279.873 0 507.896 227.822 507.896 507.896 0 135.733-52.852 263.257-148.745 359.351zM514.603 17.48v0c-75.874 0-150.147 20.42-215.010 58.857l-15.415 9.209-159.756-41.841 42.642 155.752-10.010 16.016c-42.441 67.065-64.663 144.741-64.663 224.619 0 232.827 189.385 422.212 422.413 422.212 112.71 0 218.814-44.043 298.491-123.721 79.678-79.878 123.521-185.781 123.521-298.692-0.2-233.028-189.585-422.413-422.212-422.413zM746.029 333.788c-12.612 6.406-75.073 37.036-86.685 41.24s-20.020 6.406-28.628-6.406c-8.408-12.612-32.832-41.24-40.239-49.849-7.407-8.408-14.814-9.609-27.427-3.203s-53.652 19.819-102.1 63.062c-37.637 33.633-63.262 75.274-70.669 87.886s-0.801 19.619 5.605 25.825c5.806 5.605 12.612 14.814 19.019 22.222s8.408 12.612 12.612 21.221c4.204 8.408 2.202 15.815-1.001 22.222s-28.628 68.867-39.038 94.292c-10.21 24.824-20.82 21.421-28.628 21.821-7.407 0.4-15.815 0.4-24.224 0.4s-22.222-3.203-33.833-15.815c-11.611-12.612-44.443-43.442-44.443-105.903s45.444-122.72 51.851-131.328c6.406-8.408 89.487-136.734 216.812-191.587 30.23-13.013 53.853-20.82 72.271-26.826 30.43-9.609 58.057-8.208 79.878-5.005 24.424 3.604 75.073 30.63 85.684 60.259s10.61 55.054 7.407 60.259c-3.003 5.605-11.411 8.809-24.224 15.215z" />
<glyph unicode="&#xe90b;" glyph-name="instagram" data-tags="instagram, brand, social" d="M512.801 855.598c136.934 0 153.15-0.601 207.002-3.003 50.049-2.202 77.075-10.61 95.093-17.617 23.823-9.209 41.040-20.42 58.857-38.237 18.018-18.018 29.028-35.034 38.438-58.857 7.007-18.018 15.415-45.244 17.617-95.093 2.402-54.053 3.003-70.269 3.003-207.002s-0.601-153.15-3.003-207.002c-2.202-50.049-10.61-77.075-17.617-95.093-9.209-23.823-20.42-41.040-38.237-58.857-18.018-18.018-35.034-29.028-58.857-38.438-18.018-7.007-45.244-15.415-95.093-17.617-54.053-2.402-70.269-3.003-207.002-3.003s-153.15 0.601-207.002 3.003c-50.049 2.202-77.075 10.61-95.093 17.617-23.823 9.209-41.040 20.42-58.857 38.237-18.018 18.018-29.028 35.034-38.438 58.857-7.007 18.018-15.415 45.244-17.617 95.093-2.402 54.053-3.003 70.269-3.003 207.002s0.601 153.15 3.003 207.002c2.202 50.049 10.61 77.075 17.617 95.093 9.209 23.823 20.42 41.040 38.237 58.857 18.018 18.018 35.034 29.028 58.857 38.438 18.018 7.007 45.244 15.415 95.093 17.617 53.853 2.402 70.068 3.003 207.002 3.003zM512.801 947.888c-139.136 0-156.553-0.601-211.206-3.003-54.453-2.402-91.89-11.211-124.321-23.823-33.833-13.213-62.461-30.63-90.889-59.258-28.628-28.428-46.045-57.056-59.258-90.689-12.612-32.632-21.421-69.868-23.823-124.321-2.402-54.854-3.003-72.271-3.003-211.406s0.601-156.553 3.003-211.206c2.402-54.453 11.211-91.89 23.823-124.321 13.213-33.833 30.63-62.461 59.258-90.889 28.428-28.428 57.056-46.045 90.689-59.058 32.632-12.612 69.868-21.421 124.321-23.823 54.653-2.402 72.070-3.003 211.206-3.003s156.553 0.601 211.206 3.003c54.453 2.402 91.89 11.211 124.321 23.823 33.633 13.013 62.261 30.63 90.689 59.058s46.045 57.056 59.058 90.689c12.612 32.632 21.421 69.868 23.823 124.321 2.402 54.653 3.003 72.070 3.003 211.206s-0.601 156.553-3.003 211.206c-2.402 54.453-11.211 91.89-23.823 124.321-12.612 34.033-30.029 62.661-58.657 91.089-28.428 28.428-57.056 46.045-90.689 59.058-32.632 12.612-69.868 21.421-124.321 23.823-54.854 2.603-72.271 3.203-211.406 3.203v0zM512.801 698.645c-145.342 0-263.257-117.915-263.257-263.257s117.915-263.257 263.257-263.257 263.257 117.915 263.257 263.257c0 145.342-117.915 263.257-263.257 263.257zM512.801 264.621c-94.292 0-170.767 76.475-170.767 170.767s76.475 170.767 170.767 170.767c94.292 0 170.767-76.475 170.767-170.767s-76.475-170.767-170.767-170.767zM847.928 709.055c0-33.943-27.517-61.46-61.46-61.46s-61.46 27.517-61.46 61.46c0 33.943 27.517 61.46 61.46 61.46s61.46-27.517 61.46-61.46z" />
<glyph unicode="&#xe90c;" glyph-name="facebook" data-tags="facebook, brand, social" d="M928.907 947.988h-832.813c-52.852 0-96.094-43.242-96.094-96.094v-832.813c0-52.852 43.242-96.094 96.094-96.094h416.407v448.438h-128.125v128.125h128.125v64.063c0 105.903 86.284 192.188 192.188 192.188h128.125v-128.125h-128.125c-35.234 0-64.063-28.828-64.063-64.063v-64.063h192.188l-32.031-128.125h-160.156v-448.438h288.282c52.852 0 96.094 43.242 96.094 96.094v832.813c0 52.852-43.242 96.094-96.094 96.094z" />
<glyph unicode="&#xe90d;" glyph-name="facebook1" data-tags="facebook, brand, social" d="M608.594 755.801h160.156v192.188h-160.156c-123.635 0-224.219-100.584-224.219-224.219v-96.094h-128.125v-192.188h128.125v-512.5h192.188v512.5h160.156l32.031 192.188h-192.188v96.094c0 17.363 14.668 32.031 32.031 32.031z" />
<glyph unicode="&#xe90e;" glyph-name="chatluong" data-tags="chatluong" d="M842.022 636.709c-5.405 8.208-8.008 17.817-7.407 27.627l2.402 42.642c1.602 27.627-13.413 53.452-38.037 66.065l-37.637 19.019c-8.608 4.404-15.815 11.411-20.22 20.22l-19.219 37.637c-12.412 24.624-38.237 39.639-65.864 38.237l-42.441-2.402c-9.81-0.601-19.419 2.202-27.627 7.407l-35.234 23.223c-23.223 15.415-53.452 15.415-76.475 0l-35.234-23.223c-8.208-5.405-17.817-8.008-27.627-7.407l-42.441 2.402c-27.627 1.602-53.452-13.413-65.864-38.237l-19.019-37.837c-4.404-8.608-11.411-15.815-20.020-20.22l-37.837-18.818c-24.624-12.412-39.639-38.438-38.037-66.065l2.402-42.642c0.601-9.81-2.002-19.419-7.407-27.627l-23.223-35.234c-15.415-23.223-15.415-53.452 0-76.675l23.022-35.234c5.405-8.208 8.008-17.817 7.407-27.627l-2.402-42.441c-1.602-27.627 13.413-53.452 38.037-66.065l37.637-19.019c8.608-4.404 15.815-11.411 20.22-20.22l19.019-37.837c0.801-1.602 1.602-3.003 2.603-4.604l-121.118-192.588c-3.604-5.605-1.802-13.013 3.804-16.616 2.202-1.401 4.805-2.002 7.207-1.802l128.125 9.409 47.246-119.517c1.602-4.204 5.605-7.207 10.010-7.607 0.4 0 0.801 0 1.201 0 4.204 0 8.008 2.202 10.21 5.605l120.317 191.387 120.317-191.387c2.202-3.403 6.006-5.605 10.21-5.605 0.4 0 0.801 0 1.201 0 4.604 0.4 8.408 3.403 10.010 7.607l47.246 119.517 128.125-9.409c6.606-0.4 12.412 4.404 12.813 11.011 0.2 2.603-0.4 5.005-1.802 7.207l-121.118 192.788c0.801 1.401 1.802 3.003 2.603 4.604l19.019 37.837c4.404 8.608 11.411 15.815 20.020 20.22l37.637 19.019c24.624 12.412 39.639 38.438 38.037 66.065l-2.402 42.642c-0.601 9.81 2.002 19.419 7.407 27.627l23.223 35.234c15.415 23.223 15.415 53.452 0 76.675l-23.022 35.034zM384.576-18.531l-41.841 105.703c-2.002 4.805-6.807 8.008-12.012 7.607l-113.311-8.208 104.702 166.563c13.213-10.41 30.029-15.815 46.846-14.814l42.441 2.402c9.81 0.601 19.419-2.202 27.627-7.407l25.625-17.017 33.633-53.652-113.711-181.177zM807.589 86.572l-113.311 8.208c-5.205 0.4-10.21-2.603-12.012-7.607l-41.841-105.703-136.533 217.412c16.416-2.202 33.032 1.802 46.846 11.011l35.234 23.223c8.208 5.405 17.817 8.008 27.627 7.407l42.441-2.402c16.816-1.001 33.633 4.404 46.846 14.814l104.702-166.362zM845.225 538.013l-23.223-35.234c-8.208-12.412-12.212-27.227-11.411-42.241l2.402-42.642c1.001-18.018-8.809-35.034-25.024-43.242l-37.637-19.019c-13.213-6.606-24.023-17.417-30.63-30.83l-19.019-37.837c-8.208-16.216-25.024-26.025-43.242-25.024l-42.642 2.402c-14.814 0.801-29.629-3.203-42.041-11.411l-35.234-23.223c-15.215-10.010-34.834-10.010-50.049 0l-35.234 23.223c-11.411 7.607-24.824 11.611-38.438 11.611-1.201 0-2.402 0-3.604 0l-42.441-2.402c-18.018-1.001-35.034 8.809-43.242 25.024l-19.019 37.837c-6.606 13.213-17.417 24.023-30.83 30.83l-37.637 19.019c-16.216 8.208-26.025 25.225-25.024 43.242l2.402 42.642c0.801 14.814-3.203 29.629-11.411 42.241l-23.223 35.234c-10.010 15.215-10.010 35.034 0 50.249l23.223 35.234c8.208 12.412 12.212 27.227 11.411 42.241l-2.402 42.642c-1.001 18.018 8.809 35.034 25.024 43.242l37.637 19.019c13.213 6.606 24.023 17.417 30.63 30.83l19.019 37.837c8.208 16.216 25.024 26.025 43.242 25.024l42.642-2.402c14.814-0.801 29.629 3.203 42.041 11.411l35.234 23.223c15.215 10.010 34.834 10.010 50.049 0l35.234-23.223c12.412-8.208 27.227-12.212 42.041-11.411l42.441 2.402c18.018 1.001 35.034-8.809 43.242-25.024l19.019-37.837c6.606-13.213 17.417-24.023 30.63-30.83l37.637-19.019c16.216-8.208 26.025-25.225 25.024-43.242l-2.402-42.642c-0.801-14.814 3.203-29.629 11.411-42.241l23.223-35.234c10.21-15.415 10.21-35.034 0.2-50.449v0zM512.5 818.887c-140.737 0-255.249-114.712-255.249-255.65s114.512-255.65 255.249-255.65 255.249 114.712 255.249 255.65-114.512 255.65-255.249 255.65zM512.5 331.611c-127.525 0-231.226 103.901-231.226 231.626s103.701 231.626 231.226 231.626 231.226-103.901 231.226-231.626-103.701-231.626-231.226-231.626zM642.828 613.887l-82.681 12.012-37.036 75.073c-2.002 4.004-6.206 6.606-10.811 6.606s-8.809-2.603-10.811-6.606l-37.036-75.073-82.681-12.012c-6.606-1.001-11.211-7.007-10.21-13.613 0.4-2.603 1.602-5.005 3.403-6.807l59.858-58.457-14.214-82.481c-1.201-6.606 3.203-12.813 9.81-13.813 2.603-0.4 5.205 0 7.607 1.201l73.872 38.838 73.872-38.838c5.806-3.003 13.213-0.801 16.216 5.005 1.201 2.402 1.602 5.005 1.201 7.607l-14.214 82.481 59.858 58.457c4.805 4.604 4.805 12.212 0.2 17.017-1.201 1.802-3.604 3.003-6.206 3.403v0zM568.355 547.822c-2.803-2.803-4.204-6.807-3.403-10.61l11.011-64.663-57.857 30.43c-3.403 1.802-7.607 1.802-11.211 0l-58.057-30.43 11.011 64.663c0.601 3.804-0.601 7.808-3.403 10.61l-46.846 45.845 64.863 9.409c4.004 0.601 7.207 3.003 9.009 6.606l29.028 58.857 29.028-58.857c1.802-3.604 5.205-6.006 9.009-6.606l64.863-9.409-47.046-45.845zM474.063 737.608c0.801 0 1.602 0 2.402 0.2 3.003 0.601 6.206 1.201 9.209 1.602 6.606 1.001 11.011 7.007 10.010 13.613s-7.007 11.011-13.613 10.010c-3.403-0.601-7.007-1.201-10.41-1.802-6.406-1.401-10.811-7.607-9.409-14.214 1.001-5.405 6.006-9.409 11.812-9.409v0zM441.831 727.198c6.006 2.603 8.809 9.81 6.206 15.815s-9.609 8.809-15.615 6.206c-75.674-32.031-124.722-106.304-124.722-188.584 0-6.606 5.405-12.012 12.012-12.012s12.012 5.405 12.012 12.012c-0.2 72.671 43.242 138.135 110.108 166.563z" />
<glyph unicode="&#xe90f;" glyph-name="customer-service" data-tags="customer-service" d="M924.202 192.45c-26.025 34.634-61.66 59.658-103.301 71.87l-103.101 32.231c0 0 0 0 0 0l-73.672 22.822c-6.606 2.002-13.613 1.802-19.819-0.4-5.205 4.604-8.408 11.411-8.408 18.618v4.604l113.911 29.629c38.838 10.010 65.864 45.244 65.864 85.283v56.255c16.016 6.406 27.427 22.022 27.427 40.239v73.472c0 18.418-11.211 34.033-27.427 40.239v14.614c0 11.411-0.801 22.622-2.202 33.833-1.001 8.208-8.608 14.014-16.816 13.013s-14.014-8.608-13.013-16.816c1.201-9.81 1.802-20.020 1.802-30.029v-28.428c-8.008 2.002-18.418 5.005-29.429 10.21-0.601 0.2-1.001 0.4-1.602 0.801-21.221 10.010-44.844 27.026-60.259 55.855-0.2 0.4-0.4 0.801-0.601 1.401-0.601 1.201-1.201 2.202-1.602 3.403-0.4 0.801-0.801 1.802-1.201 2.603s-0.801 1.602-1.201 2.603-1.602 3.804-2.202 5.605c-1.602 4.604-5.405 8.008-10.010 9.209-1.201 0.4-2.402 0.4-3.604 0.601-0.2 0-0.4 0-0.601 0-0.4 0-0.801 0-1.001 0-2.603-0.2-5.005-1.201-7.207-2.603-0.2-0.2-0.601-0.4-0.801-0.601 0 0-0.2-0.2-0.601-0.4 0 0 0 0-0.2 0s-0.2-0.2-0.4-0.4c-0.2 0-0.2-0.2-0.4-0.2-0.2-0.2-0.2-0.2-0.4-0.4s-0.4-0.4-0.801-0.601c-0.2 0-0.2-0.2-0.4-0.2-0.4-0.2-0.801-0.601-1.201-0.801 0 0-0.2-0.2-0.2-0.2-27.827-20.82-182.578-130.527-331.123-109.707-0.2 0-0.601 0-0.801 0.2-2.402 0.4-4.805 0.801-7.207 1.201-0.601 0.2-1.401 0.2-2.002 0.4-2.002 0.4-4.204 0.801-6.206 1.201-0.601 0.2-1.401 0.2-2.002 0.4-2.402 0.601-4.805 1.001-7.207 1.602-1.001 0.2-2.002 0.4-2.803 0.801-1.401 0.4-3.003 0.801-4.404 1.201-1.201 0.4-2.402 0.601-3.403 1.001-1.602 0.4-3.203 1.001-4.805 1.401-1.401 0.4-2.803 1.001-4.204 1.401-1.602 0.601-3.203 1.201-4.805 1.602-1.001 0.4-1.802 0.801-2.803 1.001-2.202 0.801-4.204 1.602-6.406 2.603-0.2 0-0.4 0.2-0.601 0.2v36.636c0 130.127 105.903 236.030 236.030 236.030h44.844c94.292 0 179.575-56.055 216.812-142.739 3.203-7.607 12.212-11.211 19.819-7.808 7.607 3.203 11.211 12.212 7.808 19.819-42.041 97.095-137.935 160.156-244.439 160.156h-44.844c-146.743 0-266.060-119.317-266.060-266.060v-20.82c-10.41-8.208-16.816-20.62-16.816-34.233v-73.272c0-13.813 6.606-26.226 16.816-34.233v-61.86c0-40.64 27.427-75.674 66.865-85.483l123.721-30.83v-3.804c0-7.207-3.203-14.014-8.408-18.618-6.206 2.202-13.213 2.603-19.819 0.4l-73.672-23.022c0 0 0 0 0 0l-103.101-31.831c-57.256-16.816-103.501-58.057-126.924-112.71-1.802-4.204-3.403-8.608-5.005-12.813-2.803-7.808 1.401-16.416 9.209-19.219s16.416 1.401 19.219 9.209c1.201 3.604 2.803 7.407 4.204 11.011 20.020 46.646 59.258 81.48 107.905 95.894 0 0 0.2 0 0.2 0l93.892 29.229 78.477-89.487c11.411-13.013 27.627-20.020 44.243-20.020 6.406 0 12.813 1.001 19.019 3.203l63.862 21.821 57.456-19.619c7.407-2.603 14.814-3.804 22.422-3.804 19.419 0 38.438 8.208 51.851 23.623l74.072 84.483 93.892-29.229c0 0 0.2 0 0.2 0 35.435-10.41 65.664-31.431 87.886-61.060 22.022-29.429 33.833-64.663 33.833-101.499v-118.316c0-1.001-0.801-2.002-2.002-2.002h-81.079v137.334c0 8.208-6.807 15.015-15.015 15.015s-15.015-6.807-15.015-15.015v-137.334h-616.602v137.334c0 8.208-6.807 15.015-15.015 15.015s-15.015-6.807-15.015-15.015v-137.334h-81.279c-1.001 0-2.002 0.801-2.002 2.002v108.306c0 8.208-6.807 15.015-15.015 15.015s-15.015-6.807-15.015-15.015v-108.306c0-17.617 14.414-32.031 32.031-32.031h838.619c17.617 0 32.031 14.414 32.031 32.031v117.915c0.2 43.442-13.613 84.683-39.639 119.517zM722.204 400.854l-72.271-18.818c1.001 0.601 1.802 1.401 2.803 2.002 0.4 0.2 0.801 0.601 1.201 0.801 2.603 2.002 5.005 4.004 7.607 6.006 0.4 0.2 0.601 0.601 1.001 0.801 2.603 2.202 5.205 4.404 7.808 6.807 0.2 0.2 0.2 0.2 0.4 0.4 4.004 3.804 8.008 7.607 11.812 11.611 0.2 0.2 0.601 0.601 0.801 0.801 1.802 2.002 3.804 4.004 5.605 6.006l17.017 3.003c28.027 4.805 50.249 23.823 59.858 48.848v-12.012c-0.2-26.626-18.018-49.648-43.643-56.255zM745.427 540.791c0.601 5.005 1.201 10.010 1.602 15.015 0 0.601 0 1.001 0 1.602 0.2 2.002 0.2 4.004 0.4 6.006 0 0.601 0 1.201 0 2.002 0 2.402 0.2 4.805 0.2 7.407v54.653c17.617-5.205 30.23-6.406 31.831-6.606 0 0 0 0 0 0s0 0 0 0c4.204-0.4 8.208 1.201 11.411 4.004 0.4 0.4 0.801 0.801 1.201 1.201 0.2 0.2 0.2 0.2 0.4 0.4s0.4 0.601 0.601 0.801c0 0 0 0 0 0.2 0 0 0-0.2 0-0.2v-73.672c0-7.207-5.605-13.013-12.612-13.213 0 0-0.2 0-0.2 0-0.2 0-0.4 0-0.801 0h-34.033c0 0 0 0.2 0 0.4zM721.604 465.117c1.001 2.002 2.002 4.004 3.003 6.206 0.4 1.001 1.001 2.002 1.401 3.203 1.001 2.002 1.802 4.004 2.603 6.006 0.4 1.001 0.801 2.202 1.401 3.203 0.801 1.802 1.401 3.604 2.202 5.605 0.4 0.801 0.601 1.802 1.001 2.603 0.801 2.402 1.602 4.805 2.402 7.207 0.2 0.801 0.601 1.802 0.801 2.603 0.801 2.402 1.602 5.005 2.202 7.407 0 0.4 0.2 0.601 0.2 1.001h1.802v-12.813c0-18.018-9.81-33.833-24.624-42.241 0.4 0.601 0.801 1.401 1.201 2.002 0.801 1.602 1.802 3.003 2.603 4.604 0.601 1.201 1.201 2.402 1.802 3.403zM239.933 541.391c0 0 0 0 0 0-4.604 2.202-7.808 6.807-7.808 12.212v66.265c0.4-0.2 0.801-0.4 1.401-0.601 0.601-0.4 1.401-0.601 2.002-0.801 1.401-0.601 3.003-1.201 4.404-1.802 0.601-0.2 1.401-0.601 2.002-0.801 2.002-0.801 4.004-1.602 6.206-2.402 0 0 0.2 0 0.2 0 9.609-3.403 19.219-6.406 29.229-8.809v-31.831c0-2.402 0-5.005 0.2-7.407 0-0.601 0-1.201 0-2.002 0-2.002 0.2-4.004 0.4-6.006 0-0.601 0-1.001 0-1.602 0.4-5.005 0.801-10.010 1.602-15.015 0-0.2 0-0.4 0-0.601h-34.434c-1.802 0-3.604 0.4-5.405 1.201zM292.785 401.254c-25.825 6.406-44.043 29.629-44.043 56.455v52.651h37.236c0-0.4 0.2-0.601 0.2-1.001 0.801-2.603 1.401-5.205 2.202-7.607 0.2-0.801 0.601-1.802 0.801-2.603 0.801-2.402 1.602-5.005 2.603-7.407 0.4-0.801 0.601-1.802 1.001-2.603 0.801-2.002 1.602-4.004 2.402-6.006 0.4-1.201 1.001-2.402 1.401-3.604 0.801-1.802 1.602-3.804 2.603-5.605 0.4-1.001 1.001-2.002 1.401-3.003 1.001-2.202 2.002-4.204 3.203-6.206 0.601-1.001 1.201-2.202 1.802-3.203 1.001-2.002 2.202-4.004 3.203-6.006 0.601-1.201 1.401-2.202 2.002-3.403 0.801-1.401 1.802-2.803 2.603-4.204 1.001-1.602 2.002-3.203 3.203-5.005 0.801-1.001 1.401-2.202 2.202-3.203 1.401-1.802 2.603-3.804 4.004-5.605 0.601-1.001 1.401-1.802 2.002-2.803 1.602-2.002 3.203-4.204 4.805-6.206 0.601-0.601 1.001-1.401 1.602-2.002 1.201-1.401 2.202-2.603 3.403-4.004 0.2-0.4 0.601-0.601 0.801-1.001 2.202-2.402 4.204-4.805 6.606-7.207 0.4-0.4 0.801-0.801 1.201-1.201 2.202-2.202 4.404-4.404 6.606-6.606 0.4-0.4 0.801-0.601 1.001-1.001 2.402-2.202 4.805-4.404 7.207-6.606 0.2-0.2 0.601-0.601 0.801-0.801 4.204-3.604 8.408-7.007 12.813-10.41 0 0 0.2-0.2 0.2-0.2 1.802-1.401 3.804-2.803 5.806-4.204l-84.883 21.421zM320.212 501.953c0 0.2-0.2 0.2-0.2 0.4-0.601 1.401-1.001 3.003-1.602 4.404 0 0 0 0.2 0 0.2-1.401 4.404-2.803 9.009-4.004 13.413 0 0.4-0.2 0.601-0.2 1.001-0.2 1.001-0.601 2.202-0.801 3.203-0.2 0.801-0.4 1.602-0.601 2.402-0.2 1.001-0.4 2.002-0.601 3.003-0.2 0.801-0.4 1.602-0.4 2.402-0.2 0.801-0.4 1.602-0.4 2.603-0.2 1.001-0.4 2.002-0.601 3.003-0.2 0.601-0.2 1.401-0.4 2.002-0.2 1.201-0.4 2.402-0.601 3.604 0 0.601-0.2 1.201-0.2 1.802-0.2 1.201-0.4 2.603-0.4 3.804 0 0.4-0.2 1.001-0.2 1.401-0.2 1.401-0.2 2.803-0.4 4.204 0 0.4 0 0.801-0.2 1.201-0.2 1.401-0.2 2.803-0.2 4.204 0 0.4 0 0.801 0 1.201 0 1.401-0.2 2.803-0.2 4.404 0 0.4 0 0.801 0 1.201 0 1.802 0 3.604 0 5.405v26.226c22.422-2.803 45.845-3.203 70.068-1.001 0.801 0 1.602 0.2 2.402 0.2 2.002 0.2 4.004 0.4 6.006 0.601 1.802 0.2 3.403 0.4 5.205 0.601 0.4 0 1.001 0.2 1.401 0.2 40.84 5.205 83.682 17.417 128.125 36.436 58.057 24.824 103.701 55.054 126.524 71.27 18.018-34.634 45.044-55.454 70.269-68.066 0-1.602 0-3.203 0-4.805v-61.86c0-1.802 0-3.604 0-5.405 0-0.4 0-0.801 0-1.201 0-1.401 0-2.803-0.2-4.404 0-0.4 0-0.801 0-1.201 0-1.401-0.2-2.803-0.2-4.204 0-0.4 0-0.801-0.2-1.201-0.2-1.401-0.2-2.803-0.4-4.204 0-0.4-0.2-1.001-0.2-1.401-0.2-1.201-0.4-2.603-0.4-3.804 0-0.601-0.2-1.201-0.2-1.802-0.2-1.201-0.4-2.402-0.601-3.604-0.2-0.801-0.2-1.401-0.4-2.002-0.2-1.001-0.4-2.002-0.601-3.003-0.2-0.801-0.4-1.602-0.4-2.603-0.2-0.801-0.4-1.602-0.4-2.402-0.2-1.001-0.4-2.002-0.601-3.003-0.2-0.801-0.4-1.602-0.601-2.402-0.2-1.001-0.601-2.202-0.801-3.203 0-0.4-0.2-0.601-0.2-1.001-1.201-4.604-2.603-9.009-4.004-13.413 0-0.2 0-0.2-0.2-0.4-0.4-1.401-1.001-3.003-1.602-4.404 0-0.2-0.2-0.4-0.2-0.4-7.607-20.82-18.618-39.839-32.031-56.856l-33.833-5.806c-3.203 5.605-7.407 10.41-12.813 14.214-9.609 6.807-21.221 9.409-32.832 7.407l-49.048-8.408c-24.023-4.204-40.039-27.026-36.035-50.85 2.603-15.015 12.412-27.026 25.425-32.832-7.007-0.801-14.214-1.201-21.221-1.201-29.829 0-58.057 6.406-83.682 17.817-0.601 0.2-1.201 0.601-1.602 0.801-50.049 23.022-88.887 64.863-107.705 116.113zM612.297 409.262c-2.202-3.003-5.405-5.005-9.009-5.806l-49.048-8.408c-0.801-0.2-1.602-0.2-2.402-0.2-6.807 0-12.612 4.805-13.813 11.611-1.401 7.607 3.804 14.814 11.411 16.216l49.048 8.408c0.801 0.2 1.602 0.2 2.402 0.2 2.803 0 5.605-0.801 8.008-2.603 3.003-2.202 5.005-5.405 5.806-9.009 0.601-3.604-0.2-7.207-2.402-10.41zM439.128 186.645c-11.011-3.804-23.223-0.601-31.030 8.208l-69.668 79.678 51.65 16.216c0.2 0 0.601 0 0.801-0.2l93.291-88.486-45.044-15.415zM424.514 299.955c9.409 10.010 14.814 23.423 14.814 37.437v11.812c1.001-0.4 2.002-0.601 3.003-1.001 0.4-0.2 1.001-0.4 1.401-0.4 3.003-1.001 6.006-1.802 9.009-2.603 0.601-0.2 1.001-0.2 1.602-0.4 1.602-0.4 3.403-0.801 5.005-1.201 0.4-0.2 0.801-0.2 1.401-0.2 2.803-0.601 5.806-1.201 8.809-1.802 1.001-0.2 2.002-0.4 3.003-0.601 1.401-0.2 2.803-0.4 4.204-0.801 2.202-0.4 4.204-0.601 6.406-0.801 1.201-0.2 2.202-0.2 3.403-0.4 1.802-0.2 3.604-0.4 5.405-0.601 0.801 0 1.602-0.2 2.402-0.2 2.603-0.2 5.205-0.4 7.808-0.4 0.801 0 1.401 0 2.202 0 2.803 0 5.405-0.2 8.208-0.2s5.605 0 8.208 0.2c0.801 0 1.401 0 2.202 0 2.603 0.2 5.205 0.2 7.808 0.4 0.801 0 1.602 0.2 2.402 0.2 1.802 0.2 3.604 0.4 5.405 0.601 1.201 0.2 2.202 0.2 3.403 0.4 2.202 0.2 4.204 0.601 6.406 0.801 1.401 0.2 2.803 0.4 4.204 0.801 1.001 0.2 2.002 0.4 3.003 0.601 3.003 0.601 5.806 1.201 8.809 1.802 0.4 0 0.801 0.2 1.401 0.2 1.602 0.4 3.403 0.801 5.005 1.201 0.601 0.2 1.001 0.2 1.602 0.4 3.003 0.801 6.006 1.602 9.009 2.603 0.4 0.2 1.001 0.2 1.401 0.4 1.001 0.4 2.002 0.601 3.003 1.001v-11.812c0-14.014 5.405-27.427 14.814-37.437l-88.086-83.482-88.086 83.482zM621.506 200.058c-10.41-12.012-26.826-16.416-41.841-11.211l-38.638 13.213 93.291 88.486c0.2 0.2 0.601 0.2 0.801 0.2l51.65-16.216-65.264-74.473zM381.271 113.173h-113.311c-14.614 0-26.426-11.812-26.426-26.426v-50.049c0-14.614 11.812-26.426 26.426-26.426h113.311c14.614 0 26.426 11.812 26.426 26.426v50.049c0 14.614-12.012 26.426-26.426 26.426zM377.468 40.302h-105.903v42.842h105.903v-42.842z" />
</font>
</defs>
</svg>
